Поиск

(World Fusion, Piano Flamenco, Vocal, Tango, Ethnic) Sergio Monroy - Piano Flamenco {Amalgama / Bujio BJ056, Spain} - 2003, APE (image+.cue) lossless

(World Fusion, Piano Flamenco, Vocal, Tango, Ethnic) Sergio Monroy - Piano Flamenco {Amalgama / Bujio BJ056, Spain} - 2003, APE (image+.cue) lossless
Треклист:
Sergio Monroy - Piano Flamenco
Жанр: World Fusion, Piano Flamenco, Vocal, Tango, Ethnic
Страна-производитель диска: Spain
Год издания диска: 2003
Издатель (лейбл): Amalgama / Bujio Producciones
Номер по каталогу: BJ056
Аудио кодек: APE (*.ape)
Тип рипа: image+.cue
Битрейт аудио: lossless
Продолжительность: 00:38:03
Источник (релизер): barin99
Наличие сканов в содержимом раздачи: да
Треклист:
1. Mozamo (Alegrías) 5:28
2. Cavando en Mis Adentros (Taranta) 5:30
3. Cuando Diga Jazz (Tangos) 5:06
4. Pena de Ti (Soleá) 4:52
5. Celos de Mi Soledad (Bulerías) 4:44
6. El Reencuentro (Seguidilla y Cabales) 4:47
7. De Garabato (Tanguillo) 4:42
8. Yanimá (Fiesta Por Bulería) 2:50
Personnel:
Sergio Monroy — Piano
Alfonso Gamaza — Bajo
Juan Saínz — Bateria
Bernardo Parrilla — Violin
David Palomar — Cante
 
Лог создания рипа (EAC Log)
Exact Audio Copy V0.99 prebeta 5 from 4. May 2009
EAC extraction logfile from 2. April 2011, 11:35
Sergio Monroy / Piano Flamenco
Used drive : TSSTcorpDVD+-RW TS-U633A Adapter: 0 ID: 1
Read mode : Secure
Utilize accurate stream : Yes
Defeat audio cache : Yes
Make use of C2 pointers : No
Read offset correction : 6
Overread into Lead-In and Lead-Out : No
Fill up missing offset samples with silence : Yes
Delete leading and trailing silent blocks : No
Null samples used in CRC calculations : Yes
Used interface : Native Win32 interface for Win NT & 2000
Used output format : Internal WAV Routines
Sample format : 44.100 Hz; 16 Bit; Stereo
TOC of the extracted CD
Track | Start | Length | Start sector | End sector
---------------------------------------------------------
1 | 0:00.00 | 5:28.41 | 0 | 24640
2 | 5:28.41 | 5:30.13 | 24641 | 49403
3 | 10:58.54 | 5:06.71 | 49404 | 72424
4 | 16:05.50 | 4:52.30 | 72425 | 94354
5 | 20:58.05 | 4:44.49 | 94355 | 115703
6 | 25:42.54 | 4:47.65 | 115704 | 137293
7 | 30:30.44 | 4:42.65 | 137294 | 158508
8 | 35:13.34 | 2:50.16 | 158509 | 171274
Range status and errors
Selected range
Filename C:\_Arc\BARIN99\Sergio Monroy - Piano Flamenco\Sergio Monroy - Piano Flamenco.wav
Peak level 100.0 %
Range quality 100.0 %
Copy CRC 5963990D
Copy OK
No errors occurred
AccurateRip summary
Track 1 not present in database
Track 2 not present in database
Track 3 not present in database
Track 4 not present in database
Track 5 not present in database
Track 6 not present in database
Track 7 not present in database
Track 8 not present in database
None of the tracks are present in the AccurateRip database
End of status report
 
Содержание индексной карты (.CUE)
REM GENRE Flamenco
REM DATE 2003
REM DISCID 5808EB08
REM COMMENT "ExactAudioCopy v0.99pb5"
PERFORMER "Sergio Monroy"
TITLE "Piano Flamenco"
FILE "Sergio Monroy - Piano Flamenco.ape" WAVE
TRACK 01 AUDIO
TITLE "Mozamo (Alegrias)"
PERFORMER "Sergio Monroy"
INDEX 01 00:00:00
TRACK 02 AUDIO
TITLE "Cavando En Mis Adentres (Taranta)"
PERFORMER "Sergio Monroy"
INDEX 00 05:26:41
INDEX 01 05:28:41
TRACK 03 AUDIO
TITLE "Cuando Diga Jazz (Tangos)"
PERFORMER "Sergio Monroy"
INDEX 00 10:56:54
INDEX 01 10:58:54
TRACK 04 AUDIO
TITLE "Pena De Ti (Solea)"
PERFORMER "Sergio Monroy"
INDEX 00 16:03:50
INDEX 01 16:05:50
TRACK 05 AUDIO
TITLE "Celos De Mi Soledad (Bulerias)"
PERFORMER "Sergio Monroy"
INDEX 00 20:56:05
INDEX 01 20:58:05
TRACK 06 AUDIO
TITLE "El Reencuentro (Seguidilla y Cabales)"
PERFORMER "Sergio Monroy"
INDEX 00 25:40:54
INDEX 01 25:42:54
TRACK 07 AUDIO
TITLE "De Garabato (Tanguillo)"
PERFORMER "Sergio Monroy"
INDEX 00 30:28:44
INDEX 01 30:30:44
TRACK 08 AUDIO
TITLE "Yanima (Fiesta Por Buleria)"
PERFORMER "Sergio Monroy"
INDEX 00 35:11:34
INDEX 01 35:13:34
 
Biography
Sergio Monroy has developed a unique synthesis of flamenco and piano music, bringing an incredibly fluid and open style to the piano. His first album has been acclaimed in the new flamenco community for its freshness and accessible wedding of flamenco and jazz. Sergio fuses all the components of flamenco; the guitar, the ‘palmas' and the voice without imitating them bringing all the piano's melodic resources, rhythm and harmony into play. Monroy is set to tour the UK in spring to bring this stunning fusion to UK audiences for the first time.
Born in Cadiz in 1980 Sergio Monroy developed his love of the piano young. He trained in the Manuel de Falla Conservatory in Cadiz, where he developed technical prowess through dedication to the classics. However his love of flamenco drew him away from the staid environment of classical conservatory life and before long he found himself at odds with his tutors and dropping out.
Fortunately his timing was good; a new generation of flamenco players was emerging in Cadiz under the inspiration of established flamenco and jazz players such as Chano Domingues, Javier Rubial and Pedro Cortejosa. Jazz musicians in the south were finding new ways to fuse flamenco and jazz and this inspired Monroy.
However as an interpreter of flamenco the piano was not the usual tool and Cadiz could not take him further so Sergio uprooted and headed for Madrid to train under two of Spain's most innovative pianists; Arturo Pavon and Antonio Escobar.
 
CD Universe
"Sergio uses the piano to dance flamenco, making constant nods to jazz. Their compositions are extremly sensitive. Sergio composes and interprets for the senses, weaves melodies to take them to the heart. The melodic themes are like the brushstrokes or an impresionist painting. The chords are opened, free, airy. Its compass is light and his hands spiders thar run vertiginous on the keys. Sergio synthesizes on his instrument,- the guitar, voices, caplind hands, and flamenco dancers- without imitating them. He uses the piano like piano, with all its meldic resources, rhythm and harmony. Accompanying Sergio on this first work are the excellent musicians Alfonso Gamaza and Bernardo Parrilla and the esteemed Javier Ruibal and Miguel Poveda, who see in this young composer an innovative figure with a style that we could call 'Piano Flamenco'."
 
CD Baby
Album Notes:
Sergio Monroy presents tasty flamenco/jazz from Cádiz.
"MONROY" es un disco de Flamenco, con mucho flamenco. Sergio utiliza el piano para caminar por el flamenco, haciendo constantes guiños al Jazz. Sus composiciones son de una extrema sensibilidad. Sergio compone e interpreta para los sentidos, desdibuja las melodías para llevarlas al corazón. Sus ideas melódicas son como pequeñas pinceladas de un cuadro impresionista, sus acordes son abiertos, libres de formas, su compás es luz y sus manos arañas que corren vertiginosas, por las teclas. Sergio sintetiza en su instrumento, la guitarra, el cante, las palmas, y el baile flamenco, sin imitarlos, utiliza el piano como piano, con todos sus recursos melódicos, rítmicos y armónicos. A Sergio han querido acompañarlo en su primer trabajo excelentes músicos como Alfonso Gamaza o Bernardo Parrilla entre otros y figuras tan importantes como Javier Rubial o Miguel Poveda, que ven en este joven compositor una figura renovadora dentro de "Piano Flamenco".
"MONROY" is a disc of Flamenco with so much flamenco. Sergio uses the piano to dance flamenco, making constant nods to jazz. Their compositions are extremly sensitive. Sergio composes and interprets for the senses, weaves melodies to take them to the heart. The melodic themes are like the brushstrokes or an impresionist painting. The chords are opened, free, airy. Its compass is light and his hands spiders thar run vertiginous on the keys. Sergio synthesizes on his instrument,- the guitar, voices, caplind hands, and flamenco dancers- without imitating them. He uses the piano like piano, with all its meldic resources, rhythm and harmony. Accompanying Sergio on this first work are the excellent musicians Alfonso Gamaza and Bernardo Parrilla and the esteemed Javier Ruibal and Miguel Poveda, who see in this young composer an innovative figure with a style that we could call "Piano Flamenco".
------------
Reviews:
author: independent on sunday
"increible....amazing dynamics and drama"
Read more... :
"PIANO FLAMENCO", GOOD JOB
author: Jaci
I recommend everybody this great job of the young player and composer Sergio Monroy. His piano plays with the Cadiz streets air, with sense and rhytm. Very good for flamenco lovers... "Piano flamenco, Sergio Monroy".
Read more... :
Flamenco meets Jazz
author: Nesti
Sergio Monroy seems to literally leave his hands and soul on the piano. The hand clapping and jazzy air meet like never before in the fingers of this artist. I strongly recommend it.
Read more... :
he has a great feel for the sound and transition to flamenco piano-great!
author: richard benzaquen
I would buy any other cd he would record. the piano in flamenco is as beautiful as the guitar-keep playing!
... Отличный альбом .. Рекомендую! ...
22:16
293
Нет комментариев. Ваш будет первым!