Поиск

(World Fusion, Modern Creative, Soundtrack, Winter & Winter) Ernst Reijseger (w/ Luciano Biondini, Harmen Fraanje, Mola Sylla a. o.) - My Son, My Son, What Have Ye Done - 2010, FLAC (tracks+.cue), lossless

(World Fusion, Modern Creative, Soundtrack, Winter & Winter) Ernst Reijseger (w/ Luciano Biondini, Harmen Fraanje, Mola Sylla a. o.) - My Son, My Son, What Have Ye Done - 2010, FLAC (tracks+.cue), lossless
Треклист:
Ernst Reijseger / My Son, My Son, What Have Ye Done
Жанр: World Fusion, Modern Creative, Soundtrack
Страна-производитель диска: Germany
Год издания: 2010
Издатель (лейбл): Winter & Winter
Номер по каталогу: 910 169-2
Аудиокодек: FLAC (*.flac)
Тип рипа: tracks+.cue
Битрейт аудио: lossless
Продолжительность: 1:13:26
Источник (релизер): я
Наличие сканов в содержимом раздачи: нет
Треклист:
01. Valente Quintero (Antonio Cantoral García) (performed by Chavela Vargas) 5:21
02. The Face of God / Raging Waters 8:52
03. Flamingos / Death on Crystal Street 5:03
04. Intrusions 8:57
05. I Am Born to Preach the Gospel (trad.) (performed by Reverend George Washington Phillips) 1:44
06. Still Life / Leaving Your Earthly Possessions 7:16
07. Swordsmith Destiny 2:00
08. State of Siege 5:19
09. Book of Job 6:05
10. Tunnel of Time 5:07
11. Mechanical Pianist 1:20
12. Heaven on Earth 4:21
13. Eyes of the World 2:53
14. Gabino Barrera (Víctor Cordero) (performed by Chavela Vargas) 3:21
15. Rainy Season 5:49
All compositions by Ernst Reijseger except where indicated.
Recorded at Evangelisch-Lutherse Kerk Haarlem, The Netherlands, June 2009.
Ernst Reijseger Ensemble:
Ernst Reijseger, Julie Läderach, Djoeke Reijseger [voice on track 6], Tom van Lent, Bonno Lange – Violoncello
Luciano Biondini – Accordion
Harmen Fraanje – Piano
Alan « Gunga » Purves – Percussion
Mola Sylla – Voice
Sandip Bhattacharya – Voice, Tabla
 
Лог создания рипа
Exact Audio Copy V1.0 beta 3 from 29. August 2011
EAC extraction logfile from 16. November 2013, 18:16
Ernst Reijseger / My Son, My Son, What Have Ye Done
Used drive : SlimtypeeNAU508 5 Adapter: 1 ID: 0
Read mode : Secure
Utilize accurate stream : Yes
Defeat audio cache : Yes
Make use of C2 pointers : No
Read offset correction : 6
Overread into Lead-In and Lead-Out : No
Fill up missing offset samples with silence : Yes
Delete leading and trailing silent blocks : No
Null samples used in CRC calculations : Yes
Used interface : Native Win32 interface for Win NT & 2000
Gap handling : Appended to previous track
Used output format : User Defined Encoder
Selected bitrate : 768 kBit/s
Quality : High
Add ID3 tag : No
Command line compressor : C:\Program Files (x86)\Exact Audio Copy\Flac\flac.exe
Additional command line options : -8 -V -T "ARTIST=%artist%" -T "TITLE=%title%" -T "ALBUM=%albumtitle%" -T "DATE=%year%" -T "TRACKNUMBER=%tracknr%" -T "GENRE=%genre%" -T "PERFORMER=%albuminterpret%" -T "COMPOSER=%composer%" %haslyrics%--tag-from-file=LYRICS="%lyricsfile%"%haslyrics% -T "ALBUMARTIST=%albumartist%" -T "DISCNUMBER=%cdnumber%" -T "TOTALDISCS=%totalcds%" -T "TOTALTRACKS=%numtracks%" -T "COMMENT=%comment%" %source% -o %dest%
TOC of the extracted CD
Track | Start | Length | Start sector | End sector
---------------------------------------------------------
1 | 0:00.00 | 5:20.57 | 0 | 24056
2 | 5:20.57 | 8:51.71 | 24057 | 63952
3 | 14:12.53 | 5:02.49 | 63953 | 86651
4 | 19:15.27 | 8:57.12 | 86652 | 126938
5 | 28:12.39 | 1:43.67 | 126939 | 134730
6 | 29:56.31 | 7:15.43 | 134731 | 167398
7 | 37:11.74 | 2:00.35 | 167399 | 176433
8 | 39:12.34 | 5:18.52 | 176434 | 200335
9 | 44:31.11 | 6:04.58 | 200336 | 227693
10 | 50:35.69 | 5:07.00 | 227694 | 250718
11 | 55:42.69 | 1:20.30 | 250719 | 256748
12 | 57:03.24 | 4:20.53 | 256749 | 276301
13 | 61:24.02 | 2:52.43 | 276302 | 289244
14 | 64:16.45 | 3:20.53 | 289245 | 304297
15 | 67:37.23 | 5:48.43 | 304298 | 330440
Track 1
Filename C:\EAC rips\01 - Valente Quintero.wav
Pre-gap length 0:00:02.00
Peak level 64.6 %
Extraction speed 2.4 X
Track quality 100.0 %
Test CRC 481037FB
Copy CRC 481037FB
Accurately ripped (confidence 2) [AA76E2D2] (AR v1)
Copy OK
Track 2
Filename C:\EAC rips\02 - The Face of God - Raging Waters.wav
Peak level 77.7 %
Extraction speed 2.9 X
Track quality 100.0 %
Test CRC 9EE49951
Copy CRC 9EE49951
Accurately ripped (confidence 2) [9A124CC9] (AR v1)
Copy OK
Track 3
Filename C:\EAC rips\03 - Flamingos - Death on Crystal Street.wav
Peak level 59.9 %
Extraction speed 3.1 X
Track quality 100.0 %
Test CRC 8570908F
Copy CRC 8570908F
Accurately ripped (confidence 2) [24CC034A] (AR v1)
Copy OK
Track 4
Filename C:\EAC rips\04 - Intrusions.wav
Peak level 76.6 %
Extraction speed 3.2 X
Track quality 99.9 %
Test CRC 48F70AAE
Copy CRC 48F70AAE
Accurately ripped (confidence 2) [5DB47473] (AR v1)
Copy OK
Track 5
Filename C:\EAC rips\05 - I Am Born to Preach the Gospel.wav
Peak level 47.7 %
Extraction speed 2.0 X
Track quality 99.8 %
Test CRC 745BBFE6
Copy CRC 745BBFE6
Accurately ripped (confidence 2) [395C8173] (AR v1)
Copy OK
Track 6
Filename C:\EAC rips\06 - Still Life - Leaving Your Earthly Possessions.wav
Peak level 91.2 %
Extraction speed 3.4 X
Track quality 99.9 %
Test CRC 723081CB
Copy CRC 723081CB
Accurately ripped (confidence 2) [8E6D6FEC] (AR v1)
Copy OK
Track 7
Filename C:\EAC rips\07 - Swordsmith Destiny.wav
Peak level 41.7 %
Extraction speed 2.4 X
Track quality 99.9 %
Test CRC F875453A
Copy CRC F875453A
Accurately ripped (confidence 2) [0DCB34F6] (AR v1)
Copy OK
Track 8
Filename C:\EAC rips\08 - State of Siege.wav
Peak level 30.9 %
Extraction speed 3.4 X
Track quality 99.9 %
Test CRC 5433E873
Copy CRC 5433E873
Accurately ripped (confidence 2) [4D79BE23] (AR v1)
Copy OK
Track 9
Filename C:\EAC rips\09 - Book of Job.wav
Peak level 82.4 %
Extraction speed 4.3 X
Track quality 100.0 %
Test CRC F3994380
Copy CRC F3994380
Accurately ripped (confidence 2) [DAA238A9] (AR v1)
Copy OK
Track 10
Filename C:\EAC rips\10 - Tunnel of Time.wav
Peak level 92.2 %
Extraction speed 4.4 X
Track quality 100.0 %
Test CRC 122587EF
Copy CRC 122587EF
Accurately ripped (confidence 2) [A7AFB964] (AR v1)
Copy OK
Track 11
Filename C:\EAC rips\11 - Mechanical Pianist.wav
Peak level 54.0 %
Extraction speed 3.3 X
Track quality 100.0 %
Test CRC 520DADD2
Copy CRC 520DADD2
Accurately ripped (confidence 2) [E2DA2B56] (AR v1)
Copy OK
Track 12
Filename C:\EAC rips\12 - Heaven on Earth.wav
Peak level 55.5 %
Extraction speed 4.5 X
Track quality 100.0 %
Test CRC 4964908B
Copy CRC 4964908B
Accurately ripped (confidence 2) [BC9CB758] (AR v1)
Copy OK
Track 13
Filename C:\EAC rips\13 - Eyes of the World.wav
Peak level 90.9 %
Extraction speed 4.3 X
Track quality 100.0 %
Test CRC 4DE715AB
Copy CRC 4DE715AB
Accurately ripped (confidence 2) [4BAAE3FB] (AR v1)
Copy OK
Track 14
Filename C:\EAC rips\14 - Gabino Barrera.wav
Peak level 45.6 %
Extraction speed 4.3 X
Track quality 100.0 %
Test CRC 61E16200
Copy CRC 61E16200
Accurately ripped (confidence 2) [04B0A3A5] (AR v1)
Copy OK
Track 15
Filename C:\EAC rips\15 - Rainy Season.wav
Peak level 92.1 %
Extraction speed 4.2 X
Track quality 99.9 %
Test CRC 36606E7E
Copy CRC 36606E7E
Accurately ripped (confidence 2) [886BC7DD] (AR v1)
Copy OK
All tracks accurately ripped
No errors occurred
End of status report
---- CUETools DB Plugin V2.1.4
[CTDB TOCID: w4s5cdvSFPITaTFckhwxRSCaMQs-] disk not present in database
Submit result: Le serveur a commis une violation de protocole. Section=ResponseStatusLine
==== Log checksum ECA8B08CFEE76FE814E102B7F0C4147FCE5938BDBA0830FCA4F7D83291DEAA62 ====
 
Содержание индексной карты (.CUE)
REM GENRE Jazz
REM DATE 2010
REM DISCID E911350F
REM COMMENT "ExactAudioCopy v1.0b3"
PERFORMER "Ernst Reijseger"
TITLE "My Son, My Son, What Have Ye Done"
FILE "01 - Valente Quintero.wav" WAVE
TRACK 01 AUDIO
TITLE "Valente Quintero"
PERFORMER " "
ISRC DEA291000144
INDEX 01 00:00:00
FILE "02 - The Face of God - Raging Waters.wav" WAVE
TRACK 02 AUDIO
TITLE "The Face of God / Raging Waters"
PERFORMER " "
ISRC DEA291000145
INDEX 01 00:00:00
FILE "03 - Flamingos - Death on Crystal Street.wav" WAVE
TRACK 03 AUDIO
TITLE "Flamingos / Death on Crystal Street"
PERFORMER " "
ISRC DEA291000146
INDEX 01 00:00:00
FILE "04 - Intrusions.wav" WAVE
TRACK 04 AUDIO
TITLE "Intrusions"
PERFORMER " "
ISRC DEA291000147
INDEX 01 00:00:00
FILE "05 - I Am Born to Preach the Gospel.wav" WAVE
TRACK 05 AUDIO
TITLE "I Am Born to Preach the Gospel"
PERFORMER " "
ISRC DEA291000148
INDEX 01 00:00:00
FILE "06 - Still Life - Leaving Your Earthly Possessions.wav" WAVE
TRACK 06 AUDIO
TITLE "Still Life / Leaving Your Earthly Possessions"
PERFORMER " "
ISRC DEA291000149
INDEX 01 00:00:00
FILE "07 - Swordsmith Destiny.wav" WAVE
TRACK 07 AUDIO
TITLE "Swordsmith Destiny"
PERFORMER " "
ISRC DEA291000150
INDEX 01 00:00:00
FILE "08 - State of Siege.wav" WAVE
TRACK 08 AUDIO
TITLE "State of Siege"
PERFORMER " "
ISRC DEA291000151
INDEX 01 00:00:00
FILE "09 - Book of Job.wav" WAVE
TRACK 09 AUDIO
TITLE "Book of Job"
PERFORMER " "
ISRC DEA291000152
INDEX 01 00:00:00
FILE "10 - Tunnel of Time.wav" WAVE
TRACK 10 AUDIO
TITLE "Tunnel of Time"
PERFORMER " "
ISRC DEA291000153
INDEX 01 00:00:00
FILE "11 - Mechanical Pianist.wav" WAVE
TRACK 11 AUDIO
TITLE "Mechanical Pianist"
PERFORMER " "
ISRC DEA291000154
INDEX 01 00:00:00
FILE "12 - Heaven on Earth.wav" WAVE
TRACK 12 AUDIO
TITLE "Heaven on Earth"
PERFORMER " "
ISRC DEA291000155
INDEX 01 00:00:00
FILE "13 - Eyes of the World.wav" WAVE
TRACK 13 AUDIO
TITLE "Eyes of the World"
PERFORMER " "
ISRC DEA291000156
INDEX 01 00:00:00
FILE "14 - Gabino Barrera.wav" WAVE
TRACK 14 AUDIO
TITLE "Gabino Barrera"
PERFORMER " "
ISRC DEA291000157
INDEX 01 00:00:00
FILE "15 - Rainy Season.wav" WAVE
TRACK 15 AUDIO
TITLE "Rainy Season"
PERFORMER " "
ISRC DEA291000158
INDEX 01 00:00:00
Доп. информация: Soundtrack of the Werner Herzog's movie "My Son, My Son, What Have Ye Done" (2009).
13:56
765
Нет комментариев. Ваш будет первым!