Поиск

(Vocal Jazz, Avant-Garde, Folk) Chłopcy (Chlopcy) Kontra Basia - Oj tak! - 2013, FLAC (tracks+.cue), lossless

(Vocal Jazz, Avant-Garde, Folk) Chłopcy (Chlopcy) Kontra Basia - Oj tak! - 2013, FLAC (tracks+.cue), lossless
Треклист:
Chłopcy Kontra Basia / Oj tak!
Жанр: Vocal Jazz, Avant-Garde, Folk
Страна-производитель диска: Poland
Год издания: 2013
Издатель (лейбл): Art2 / Agora
Номер по каталогу: 002
Страна: Poland
Аудиокодек: FLAC (*.flac)
Тип рипа: tracks+.cue
Битрейт аудио: lossless
Продолжительность: 0:42:33
Источник (релизер): kivius
Наличие сканов в содержимом раздачи: нет
Треклист:
01. Mam Ja Meza (3:47)
02. Oj Tak (4:38)
03. Hej Zagraj Muzyczko (4:07)
04. Krzywa Noga (2:15)
05. Jerzy (3:41)
06. Kasia (1:56)
07. Sukienka (2:52)
08. Bociek (4:40)
09. O Martusi Pchelce (4:00)
10. Wieczerza (3:37)
11. Lament (4:06)
12. Sekret (2:55)
 
EAC log
Exact Audio Copy V1.0 beta 3 from 29. August 2011
EAC extraction logfile from 16. November 2013, 22:29
Chłopcy Kontra Basia / Oj tak!
Used drive : TSSTcorpCDDVDW SE-208DB Adapter: 2 ID: 0
Read mode : Secure
Utilize accurate stream : Yes
Defeat audio cache : Yes
Make use of C2 pointers : No
Read offset correction : 6
Overread into Lead-In and Lead-Out : No
Fill up missing offset samples with silence : Yes
Delete leading and trailing silent blocks : No
Null samples used in CRC calculations : Yes
Used interface : Native Win32 interface for Win NT & 2000
Gap handling : Appended to previous track
Used output format : User Defined Encoder
Selected bitrate : 1024 kBit/s
Quality : High
Add ID3 tag : No
Command line compressor : C:\Program Files (x86)\Exact Audio Copy\FLAC\FLAC.EXE
Additional command line options : -8 -V -T "ARTIST=%artist%" -T "TITLE=%title%" -T "ALBUM=%albumtitle%" -T "DATE=%year%" -T "TRACKNUMBER=%tracknr%" -T "GENRE=%genre%" -T "PERFORMER=%albuminterpret%" -T "COMPOSER=%composer%" %haslyrics%--tag-from-file=LYRICS="%lyricsfile%"%haslyrics% -T "ALBUMARTIST=%albumartist%" -T "DISCNUMBER=%cdnumber%" -T "TOTALDISCS=%totalcds%" -T "TOTALTRACKS=%numtracks%" -T "COMMENT=%comment%" %source% -o %dest%
TOC of the extracted CD
Track | Start | Length | Start sector | End sector
---------------------------------------------------------
1 | 0:00.00 | 3:47.26 | 0 | 17050
2 | 3:47.26 | 4:37.46 | 17051 | 37871
3 | 8:24.72 | 4:06.41 | 37872 | 56362
4 | 12:31.38 | 2:15.13 | 56363 | 66500
5 | 14:46.51 | 3:40.62 | 66501 | 83062
6 | 18:27.38 | 1:55.41 | 83063 | 91728
7 | 20:23.04 | 2:51.69 | 91729 | 104622
8 | 23:14.73 | 4:40.00 | 104623 | 125622
9 | 27:54.73 | 4:00.28 | 125623 | 143650
10 | 31:55.26 | 3:36.66 | 143651 | 159916
11 | 35:32.17 | 4:05.47 | 159917 | 178338
12 | 39:37.64 | 2:54.70 | 178339 | 191458
Track 1
Filename W:\_MUSIC ALL\Chlopcy Kontra Basia - Oj tak! (2013) [FLAC]\01. Mam Ja Męża.wav
Pre-gap length 0:00:02.00
Peak level 98.8 %
Extraction speed 2.5 X
Track quality 100.0 %
Test CRC 94215686
Copy CRC 94215686
Track not present in AccurateRip database
Copy OK
Track 2
Filename W:\_MUSIC ALL\Chlopcy Kontra Basia - Oj tak! (2013) [FLAC]\02. Oj Tak.wav
Pre-gap length 0:00:02.20
Peak level 98.8 %
Extraction speed 2.8 X
Track quality 100.0 %
Test CRC 486BB143
Copy CRC 486BB143
Track not present in AccurateRip database
Copy OK
Track 3
Filename W:\_MUSIC ALL\Chlopcy Kontra Basia - Oj tak! (2013) [FLAC]\03. Hej Zagraj Muzyczko.wav
Pre-gap length 0:00:02.20
Peak level 98.8 %
Extraction speed 3.1 X
Track quality 100.0 %
Test CRC E687A228
Copy CRC E687A228
Track not present in AccurateRip database
Copy OK
Track 4
Filename W:\_MUSIC ALL\Chlopcy Kontra Basia - Oj tak! (2013) [FLAC]\04. Krzywa Noga.wav
Pre-gap length 0:00:02.20
Peak level 98.8 %
Extraction speed 2.9 X
Track quality 100.0 %
Test CRC A7366285
Copy CRC A7366285
Track not present in AccurateRip database
Copy OK
Track 5
Filename W:\_MUSIC ALL\Chlopcy Kontra Basia - Oj tak! (2013) [FLAC]\05. Jerzy.wav
Pre-gap length 0:00:02.20
Peak level 98.8 %
Extraction speed 3.3 X
Track quality 100.0 %
Test CRC 21E0CE14
Copy CRC 21E0CE14
Track not present in AccurateRip database
Copy OK
Track 6
Filename W:\_MUSIC ALL\Chlopcy Kontra Basia - Oj tak! (2013) [FLAC]\06. Kasia.wav
Pre-gap length 0:00:02.20
Peak level 68.5 %
Extraction speed 2.1 X
Track quality 99.9 %
Test CRC F977F03B
Copy CRC F977F03B
Track not present in AccurateRip database
Copy OK
Track 7
Filename W:\_MUSIC ALL\Chlopcy Kontra Basia - Oj tak! (2013) [FLAC]\07. Sukienka.wav
Pre-gap length 0:00:02.20
Peak level 98.8 %
Extraction speed 3.4 X
Track quality 100.0 %
Test CRC F93DC96D
Copy CRC F93DC96D
Track not present in AccurateRip database
Copy OK
Track 8
Filename W:\_MUSIC ALL\Chlopcy Kontra Basia - Oj tak! (2013) [FLAC]\08. Bociek.wav
Pre-gap length 0:00:02.20
Peak level 98.8 %
Extraction speed 3.8 X
Track quality 100.0 %
Test CRC CE4C5BDA
Copy CRC CE4C5BDA
Track not present in AccurateRip database
Copy OK
Track 9
Filename W:\_MUSIC ALL\Chlopcy Kontra Basia - Oj tak! (2013) [FLAC]\09. O Martusi Pchełce.wav
Pre-gap length 0:00:02.20
Peak level 98.8 %
Extraction speed 3.2 X
Track quality 99.9 %
Test CRC BFB9109F
Copy CRC BFB9109F
Track not present in AccurateRip database
Copy OK
Track 10
Filename W:\_MUSIC ALL\Chlopcy Kontra Basia - Oj tak! (2013) [FLAC]\10. Wieczerza.wav
Pre-gap length 0:00:02.20
Peak level 98.8 %
Extraction speed 4.0 X
Track quality 100.0 %
Test CRC B9A24E70
Copy CRC B9A24E70
Track not present in AccurateRip database
Copy OK
Track 11
Filename W:\_MUSIC ALL\Chlopcy Kontra Basia - Oj tak! (2013) [FLAC]\11. Lament.wav
Pre-gap length 0:00:02.20
Peak level 94.1 %
Extraction speed 4.2 X
Track quality 100.0 %
Test CRC 670F16A2
Copy CRC 670F16A2
Track not present in AccurateRip database
Copy OK
Track 12
Filename W:\_MUSIC ALL\Chlopcy Kontra Basia - Oj tak! (2013) [FLAC]\12. Sekret.wav
Pre-gap length 0:00:02.20
Peak level 98.8 %
Extraction speed 3.1 X
Track quality 99.9 %
Test CRC A67A9FDE
Copy CRC A67A9FDE
Track not present in AccurateRip database
Copy OK
None of the tracks are present in the AccurateRip database
No errors occurred
End of status report
---- CUETools DB Plugin V2.1.3
[CTDB TOCID: KsOcJVuLj_6LOrkynoAr.ZS.pd0-] found, Submit result: KsOcJVuLj_6LOrkynoAr.ZS.pd0- has been confirmed
[2d5f760a] (1/1) Accurately ripped
==== Log checksum 097C89C52676A0C49F7FC6C87CDE2124596651C7C1EDBECB96EC6F7D94744802 ====
 
auCDtect's log
-----------------------
DON'T MODIFY THIS FILE
-----------------------
PERFORMER: auCDtect Task Manager, ver. 1.5.1RC3 build 1.5.1.4
Copyright (c) 2008-2010 y-soft. All rights reserved
http://y-soft.org
ANALYZER: auCDtect: CD records authenticity detector, version 0.8.2
Copyright (c) 2004 Oleg Berngardt. All rights reserved.
Copyright (c) 2004 Alexander Djourik. All rights reserved.
FILE: 12. Sekret.flac
Size: 16711577 Hash: AE78D347449FE00D32FBDA5337E9BDE9 Accuracy: -m0
Conclusion: CDDA 100%
Signature: 5524114926A6DAE9E96CD28E630ABD01C2AC1E44
FILE: 11. Lament.flac
Size: 23619682 Hash: 4614E7BE6BEFDACB910087D4FF2B7E30 Accuracy: -m0
Conclusion: CDDA 100%
Signature: 0A5E8E5D607387DA66C56A73A7DD35910CF51116
FILE: 10. Wieczerza.flac
Size: 23146246 Hash: CF205F9BDF6385250FF78006F758B738 Accuracy: -m0
Conclusion: CDDA 100%
Signature: E28B0222B7199B4ADDFCBC6E0FDAB3DD3F8DAF6D
FILE: 09. O Martusi Pchełce.flac
Size: 27408228 Hash: A14907FCB737A311B2F82F326A52A724 Accuracy: -m0
Conclusion: CDDA 100%
Signature: 306B460F66F278B8BB991560EEA83D38FEFC509E
FILE: 08. Bociek.flac
Size: 30543663 Hash: F868791C7BF882EAE47E14E23276EB16 Accuracy: -m0
Conclusion: CDDA 100%
Signature: 61824CB5529E30AAFE7032EED6C6A0F57C138833
FILE: 07. Sukienka.flac
Size: 17324976 Hash: BA16CEEC9BA593833CCEFF82EC2D9486 Accuracy: -m0
Conclusion: CDDA 100%
Signature: AC42BB3B87A7A9C726A0B26D0EAA375DD5E64D07
FILE: 06. Kasia.flac
Size: 9419994 Hash: BE1109996038E0136CD884B5180BF7B2 Accuracy: -m0
Conclusion: CDDA 100%
Signature: 433FD6E45819974E8EC8CFFF056597A4194A2D5D
FILE: 05. Jerzy.flac
Size: 24815480 Hash: F2C3E6DB82409AFDF259B78C80B49F66 Accuracy: -m0
Conclusion: CDDA 100%
Signature: C747A9ACD643A5094C5DA27FAFBFDEFDB521C99A
FILE: 04. Krzywa Noga.flac
Size: 13718248 Hash: C974EF6916DD568AAC1363317720CF9D Accuracy: -m0
Conclusion: CDDA 100%
Signature: C55521EFD5B6D89273F3A49F7FE0DC3F5E3E1378
FILE: 03. Hej Zagraj Muzyczko.flac
Size: 26314700 Hash: 2317F845E0789265F2A9A16091F37A3F Accuracy: -m0
Conclusion: CDDA 100%
Signature: C4F0D15E36DA1D931D98388E74134711AA9FE9DB
FILE: 02. Oj Tak.flac
Size: 30471076 Hash: FF9535EF493EC6EB489035DD8DEB4401 Accuracy: -m0
Conclusion: CDDA 100%
Signature: FFFC6D66F68985B769B567F9191AD1DF6F6C5B28
FILE: 01. Mam Ja Męża.flac
Size: 27940680 Hash: 7768B0672FB4181343CC127822AF27ED Accuracy: -m0
Conclusion: CDDA 100%
Signature: B131DAC16ED6A230F70C5E2BEC1F36224B400001
 
.cue
REM GENRE Folk
REM DATE 2013
REM DISCID AE09F80C
REM COMMENT "ExactAudioCopy v1.0b3"
PERFORMER "Chlopcy Kontra Basia"
TITLE "Oj tak!"
FILE "01. Mam Ja Meza.wav" WAVE
TRACK 01 AUDIO
TITLE "Mam Ja Meza"
PERFORMER "Chlopcy Kontra Basia"
ISRC PLC691101807
INDEX 01 00:00:00
TRACK 02 AUDIO
TITLE "Oj Tak"
PERFORMER "Chlopcy Kontra Basia"
ISRC PLC691101808
INDEX 00 03:45:11
FILE "02. Oj Tak.wav" WAVE
INDEX 01 00:00:00
TRACK 03 AUDIO
TITLE "Hej Zagraj Muzyczko"
PERFORMER "Chlopcy Kontra Basia"
ISRC PLC691101809
INDEX 00 04:35:31
FILE "03. Hej Zagraj Muzyczko.wav" WAVE
INDEX 01 00:00:00
TRACK 04 AUDIO
TITLE "Krzywa Noga"
PERFORMER "Chlopcy Kontra Basia"
ISRC PLC691101810
INDEX 00 04:04:26
FILE "04. Krzywa Noga.wav" WAVE
INDEX 01 00:00:00
TRACK 05 AUDIO
TITLE "Jerzy"
PERFORMER "Chlopcy Kontra Basia"
ISRC PLC691101811
INDEX 00 02:12:73
FILE "05. Jerzy.wav" WAVE
INDEX 01 00:00:00
TRACK 06 AUDIO
TITLE "Kasia"
PERFORMER "Chlopcy Kontra Basia"
ISRC PLC691101812
INDEX 00 03:38:47
FILE "06. Kasia.wav" WAVE
INDEX 01 00:00:00
TRACK 07 AUDIO
TITLE "Sukienka"
PERFORMER "Chlopcy Kontra Basia"
ISRC PLC691101813
INDEX 00 01:53:26
FILE "07. Sukienka.wav" WAVE
INDEX 01 00:00:00
TRACK 08 AUDIO
TITLE "Bociek"
PERFORMER "Chlopcy Kontra Basia"
ISRC PLC691101814
INDEX 00 02:49:54
FILE "08. Bociek.wav" WAVE
INDEX 01 00:00:00
TRACK 09 AUDIO
TITLE "O Martusi Pchelce"
PERFORMER "Chlopcy Kontra Basia"
ISRC PLC691101815
INDEX 00 04:37:60
FILE "09. O Martusi Pchelce.wav" WAVE
INDEX 01 00:00:00
TRACK 10 AUDIO
TITLE "Wieczerza"
PERFORMER "Chlopcy Kontra Basia"
ISRC PLC691101816
INDEX 00 03:58:13
FILE "10. Wieczerza.wav" WAVE
INDEX 01 00:00:00
TRACK 11 AUDIO
TITLE "Lament"
PERFORMER "Chlopcy Kontra Basia"
ISRC PLC691101817
INDEX 00 03:34:51
FILE "11. Lament.wav" WAVE
INDEX 01 00:00:00
TRACK 12 AUDIO
TITLE "Sekret"
PERFORMER "Chlopcy Kontra Basia"
ISRC PLC691101818
INDEX 00 04:03:32
FILE "12. Sekret.wav" WAVE
INDEX 01 00:00:00
 
Об исполнителе (english)
The band consists of three musicians: Basia (the singer, clarinette player, the author of lyrics), Marcin Nenko (doublebass) and Tomasz Waldowski (drums and ethnic pipes).
Their cooperation generates something fresh and absolutely surprising. Compositions of “Chłopcy kontra Basia” include some rhythms, melodies, harmonic solutions which are characteristic for polish traditional dances and songs like “mazurka”, “oberek” or “kujawiak”. The lyrics written by Basia on basis of traditional rural songs and poems recall the time which doesn't exist any more: the time of old believes, legends, fairy tales and magic spells.
 
Об альбоме (сборнике)
Двадцатиминутный отрывок живого выступления: http://www.youtube.com/watch?v=KumLl92iECY
 
Состав
Basia Derlak - klarnet, drumla, śpiew (clarinet, jaws harp, vocal)
Marcin Nenko - kontrabas (double bass)
Tomasz Waldowski - perkusja, Futujara, fujara pasterska (drums, Futujara, sheperd's pipe)
Krzysztof Podsiadło - dźwięk (sound engineering)
13:55
411
Нет комментариев. Ваш будет первым!