Поиск

(World Fusion / Modern Creative / Songlines) Brad Shepik and the Commuters - The Loan - 1997, FLAC (image+.cue), lossless

(World Fusion / Modern Creative / Songlines) Brad Shepik and the Commuters - The Loan - 1997, FLAC (image+.cue), lossless
Треклист:
Brad Shepik and the Commuters - The Loan
Жанр: World Fusion / Modern Creative / Songlines
Год выпуска диска: 1997
Производитель диска: Canada (Songlines SGL 1518-2)
Аудио кодек: FLAC
Тип рипа: image+.cue
Битрейт аудио: lossless
Продолжительность: 53:22
Трэклист:
Brad Shepik guitars, electric saz, banjo, cumbus
Peter Epstein alto and soprano saxophones
Tony Scherr electric bass
Kenny Wollesen drums, timpani
Seido Salifoski dumbek, percussion
1. Cumin
2. Sazbek
3. The Seeress
4. Gastibelza [Brassens]
5. Rumi
6. The Water's Thirst
7. Zdravo
8. Mint
9. The Souk

 
AMG Review
Of the many ethnic fusions of jazz, this may be the most wondrous and startling of them all. Shepik plays electric guitar and a variety of similarly amplified string instruments: saz, Portugese guitar, cumbus, as well as acoustic guitar and banjo. His approach is primarily that of a single-line staccato melodicist, more whirling dervish than Jimi Hendrix. Themes are taken from Balkan, Persian, Turkish, and African motifs (all compositions are written by Shepik), and they take on a life of their own. Many of the melodies are played in unison with alto/soprano saxophonist Peter Epstein, who emerges as an equal partner and important voice. Two similar sounding themes define the Commuters' approach; "The Water's Thirst" has a singing acoustic guitar and soprano sax with a slower rhythm that suggests a Turkish caravan, while the same line is sped up in a frenzy in 13/8 time on cumbus and alto for the showstopper "Mint." The band also includes electric bass guitarist Tony Scherr (Fima Ephron has toured with the band), drummer Kenny Wollesen (Michael Sarin has been a Commuter in concert), and percussionist Seido Salifoski. Scherr's dark bass underpinnings and the percussionists' propulsive ethnic beats provide the perfect launching pad to send Shepik and Epstein flying. Collectively they are making some incredibly difficult and different music sound natural, free, and purposeful. This CD is essential for world music listeners, highly recommended to creative music lovers, and without a doubt one of the boldest music hybrids to come down the pike in the last 40 years. ~ Michael G. Nastos, AMG
 
EAC Report
Exact Audio Copy V0.99 prebeta 5 from 4. May 2009
EAC extraction logfile from 17. October 2009, 22:18
Brad Shepik and the Commuters / The Loan
Used drive : TSSTcorpCD/DVDW SH-S182M Adapter: 2 ID: 0
Read mode : Secure
Utilize accurate stream : Yes
Defeat audio cache : Yes
Make use of C2 pointers : No
Read offset correction : 6
Overread into Lead-In and Lead-Out : No
Fill up missing offset samples with silence : Yes
Delete leading and trailing silent blocks : No
Null samples used in CRC calculations : Yes
Used interface : Installed external ASPI interface
Used output format : User Defined Encoder
Selected bitrate : 1024 kBit/s
Quality : High
Add ID3 tag : No
Command line compressor : C:\Program Files\FLAC\flac.exe
Additional command line options : -6 -V -T "ARTIST=%a" -T "TITLE=%t" -T "ALBUM=%g" -T "DATE=%y" -T "TRACKNUMBER=%n" -T "GENRE=%m" -T "COMMENT=EAC FLAC -6" %s
TOC of the extracted CD
Track | Start | Length | Start sector | End sector
---------------------------------------------------------
1 | 0:00.00 | 5:24.60 | 0 | 24359
2 | 5:24.60 | 7:48.08 | 24360 | 59467
3 | 13:12.68 | 7:42.22 | 59468 | 94139
4 | 20:55.15 | 7:56.46 | 94140 | 129885
5 | 28:51.61 | 1:32.66 | 129886 | 136851
6 | 30:24.52 | 6:16.36 | 136852 | 165087
7 | 36:41.13 | 6:53.19 | 165088 | 196081
8 | 43:34.32 | 6:58.43 | 196082 | 227474
9 | 50:33.00 | 2:49.04 | 227475 | 240153
Range status and errors
Selected range
Filename C:\Documents and Settings\Igor\My Documents\My Music\eac\Brad Shepik and the Commuters - The Loan.wav
Peak level 100.0 %
Range quality 100.0 %
Test CRC 03DB67C4
Copy CRC 03DB67C4
Copy OK
No errors occurred
AccurateRip summary
Track 1 not present in database
Track 2 not present in database
Track 3 not present in database
Track 4 not present in database
Track 5 not present in database
Track 6 not present in database
Track 7 not present in database
Track 8 not present in database
Track 9 not present in database
None of the tracks are present in the AccurateRip database
End of status report
09:44
261
Нет комментариев. Ваш будет первым!