Поиск

(jazz,world fusion,ethnic) Takis Barberis - Naiva - 1998, FLAC (image+.cue), lossless

(jazz,world fusion,ethnic) Takis Barberis - Naiva - 1998, FLAC (image+.cue), lossless
Треклист:
Takis Barberis - Naiva
Жанр: jazz,world fusion,ethnic
Год выпуска диска: 1998
Производитель диска: Greece
Аудио кодек: FLAC
Тип рипа: image+.cue
Битрейт аудио: lossless
Продолжительность: 72,51
Трэклист:
1. Naiva 7:24
2. Ceremony 5:45
3. Papa's Radio 6:27
4. Unfolding the Map 5:19
5. Polytropon 5:37
6. Hopes 5:13
7. Indiom 5:26
8. In His Dreams 5:42
9. Marwa 4:44
10. Aura 7:04
11. Photopolis 4:55
12. Phantasmagoria 4:30
13. Peace, Please 4:37
Доп. информация:
 
EAC Log
Exact Audio Copy V0.99 prebeta 4 from 23. January 2008
EAC extraction logfile from 27. October 2009, 8:24
Barberis Takis / Naiva
Used drive : _NEC DVD_RW ND-3500AG Adapter: 0 ID: 0
Read mode : Secure
Utilize accurate stream : Yes
Defeat audio cache : Yes
Make use of C2 pointers : No
Read offset correction : 48
Overread into Lead-In and Lead-Out : No
Fill up missing offset samples with silence : Yes
Delete leading and trailing silent blocks : No
Null samples used in CRC calculations : Yes
Used interface : Native Win32 interface for Win NT & 2000
Used output format : User Defined Encoder
Selected bitrate : 768 kBit/s
Quality : High
Add ID3 tag : No
Command line compressor : C:\Program Files\Exact Audio Copy\FLAC\FLAC.EXE
Additional command line options : -6 -V -T "ARTIST=%a" -T "TITLE=%t" -T "ALBUM=%g" -T "DATE=%y" -T "TRACKNUMBER=%n" -T "GENRE=%m" -T "COMMENT=%e" %s -o %d
TOC of the extracted CD
Track | Start | Length | Start sector | End sector
---------------------------------------------------------
1 | 0:00.00 | 7:24.45 | 0 | 33344
2 | 7:24.45 | 5:45.72 | 33345 | 59291
3 | 13:10.42 | 6:27.63 | 59292 | 88379
4 | 19:38.30 | 5:19.62 | 88380 | 112366
5 | 24:58.17 | 5:37.53 | 112367 | 137694
6 | 30:35.70 | 5:13.35 | 137695 | 161204
7 | 35:49.30 | 5:26.45 | 161205 | 185699
8 | 41:16.00 | 5:42.22 | 185700 | 211371
9 | 46:58.22 | 4:44.65 | 211372 | 232736
10 | 51:43.12 | 7:04.15 | 232737 | 264551
11 | 58:47.27 | 4:55.35 | 264552 | 286711
12 | 63:42.62 | 4:30.53 | 286712 | 307014
13 | 68:13.40 | 4:38.30 | 307015 | 327894
Range status and errors
Selected range
Filename J:\eMusic\Rip\Barberis Takis - Naiva.wav
Peak level 97.7 %
Range quality 100.0 %
Test CRC A0AFB61A
Copy CRC A0AFB61A
Copy OK
No errors occurred
AccurateRip summary
Track 1 not present in database
Track 2 not present in database
Track 3 not present in database
Track 4 not present in database
Track 5 not present in database
Track 6 not present in database
Track 7 not present in database
Track 8 not present in database
Track 9 not present in database
Track 10 not present in database
Track 11 not present in database
Track 12 not present in database
Track 13 not present in database
None of the tracks are present in the AccurateRip database
End of status report
 
auCDtect
-----------------------
DON'T MODIFY THIS FILE
-----------------------
PERFORMER: auCDtect Task Manager, ver. 1.0.0 Stable build 1.0.0.0
Copyright (c) 2008, 2009 y-soft. All rights reserved
http://y-soft.110mb.com
ANALYZER: auCDtect: CD records authenticity detector, version 0.8.2
Copyright (c) 2004 Oleg Berngardt. All rights reserved.
Copyright (c) 2004 Alexander Djourik. All rights reserved.
FILE: Barberis Takis - Naiva.flac
Size: 490861513 Hash: 8DE497D53F41E708C632DE777A8D81F0 Accuracy: -m0
Conclusion: CDDA 100%
Signature: DA46F3EE54D2C68038D1277AB7CE5F48B8B4AACA
 
Personnel
Takis Barberis (Guitars, Synthesizer and Percussion programming, )
George Polyhronakos (Drums, Shaker and Cymbals)
Yiorgos Georgiadis (Bass Guitar) - 1,3,4,6-11
Shankar Lal (Tabla) - 3,5,7,9,12
Manos Saridakis (Piano and Keyboards) - 1,4,8,10
Reshma Srivastava Pizanis (Sitar) - 5,7,9
Takis Farazis (Accordion) - 8,13
George Kontrafouris (Piano) - 2,6
Girish Chandra Srivastava (Tabla) - 1,6
Asha Srivastava (Tanpura) - 5
Petros Loucas Chalkias (Clarinet) - 3
Takis Patrelis (Tenor Saxophone) - 2
Рип из другого ресурса.Все спасибо into09
 
И ещё - обратите внимание,пожалуйста
Прошу обратить внимание на то, что весь материал, представленный выше, предназначен исключительно для ознакомления! Приобретайте, пожалуйста, легальные диски, которые вне всякого сомнения станут достойным украшением вашей коллекции! В соответствие с ФЗ "Об авторском праве и смежных правах", Вы должны удалить все вышеозначенные трэки со своего жесткого диска и иных носителей сразу после ознакомления.
Download available for power users only.
08:43
245
Нет комментариев. Ваш будет первым!