Поиск

(World Fusion / Modern Creative) [CD] Ernst Reijseger with Mola Sylla and Serigne C. M. Gueye - Janna - 2003, FLAC (tracks+.cue), lossless

(World Fusion / Modern Creative) [CD] Ernst Reijseger with Mola Sylla and Serigne C. M. Gueye - Janna - 2003, FLAC (tracks+.cue), lossless
Треклист:
Ernst Reijseger with Mola Sylla and Serigne C. M. Gueye - Janna
Жанр: World Fusion / Modern Creative
Носитель: CD
Страна-производитель диска (релиза): Germany
Год издания: 2003
Издатель (лейбл): Winter & Winter
Номер по каталогу: 910 094-2
Аудиокодек: FLAC (*.flac)
Тип рипа: tracks+.cue
Битрейт аудио: lossless
Продолжительность: 01:07:23
Источник (релизер): what.cd / спасибо heureka88
Наличие сканов в содержимом раздачи: нет
Треклист:
1. Jangelma (Mola Sylla) (12:42)
2. Baba (Mola Sylla) (06:42)
3. Sàng Xale Man (Mola Sylla, traditional) (07:19)
4. Noon (Mola Sylla) (07:13)
5. Fier (Mola Sylla) (07:00)
6. Njaarelu Adiye (Mola Sylla) (08:32)
7. Doxandéem (Mola Sylla, arrg. Mola Sylla, Serigne C.M. Gueye) (09:22)
8. Sicroula (Mola Sylla) (08:29)
Доп. информация:
Musicians:
Ernst Reijseger - cello, percussion
Mola Sylla - vocals, m'bira, kongoma, xalam, nose flute, bejjen
Serigne C. M. Gueye - soruba, djembe, bougarabou, leget
Recorded at Espace du Culturel Bois-Fleuri, Lormont, France, November 17th & 18th, 2002
Ernst Reijseger with Mola Sylla and Serigne C. M. Gueye - Janna allmusic.com
Ernst Reijseger Official Site
Ernst Reijseger from Wikipedia, the free encyclopedia
Mola Sylla Official Site
Mola Sylla from Wikipedia, the free encyclopedia
 
... review ...
Janna is the recording on which the extraordinary improvising cellist Ernst Reijseger collaborates with Senegalese poet and instrumentalist Mola Sylla and percussionist Serigne C.M. Gueye on a program of songs and poetry that erases the borders between European and African traditions and creates something entirely new from the ruins. This could only be accomplished if each member of this trio brought the entirety of his musical heritage with him to the table and placed it there to be heard, pillaged, reshaped, and molded by the fire of creation. From the opening "Jangelma," a song/poem that offers a scathing view of the education of Francophone Africans, Sylla's voice, intoning his words so deliberately and softly at first, is completely possessed by the increasing emotionalism in Reijseger's playing and begins to cry out his rage and sorrow. This is sharply contrasted with "Baba," a percussive hymn of gratitude where song, dance, and improvisation are all woven together. The interplay between percussion instruments and the cello played on "Sang Xale Man" ("Cover Me Up") is otherworldly in its articulation as soul music so rooted in antiquity it is impossible to believe it is a modern composition/improvisation. Each piece is somewhat extended. There are only eight selections here, totaling almost 70 minutes of playing time. Textures, dynamic, and tones are the musical concerns as they convey these gorgeous songs, poems, and stories without compromise or regard for ceremony. This is deeply, wonderfully, emotionally rendered exploratory music that cannot be classified, thank goodness.
Thom Jurek ~ AMG
 
Лог создания рипа
X Lossless Decoder version 20100218 (116.4)
XLD extraction logfile from 2010-03-05 19:26:17 +0100
Ernst Reijseger - Mola Sylla - Serigne C.M. Gueye / Janna
Used drive : MATSHITA DVD-R UJ-857E (revision ZF1E)
Use cdparanoia mode : YES (CDParanoia III 10.2 engine)
Disable audio cache : OK for the drive with cache less than 2750KB
Make use of C2 pointers : NO
Read offset correction : 102
Max retry count : 100
TOC of the extracted CD
Track | Start | Length | Start sector | End sector
---------------------------------------------------------
1 | 00:00:00 | 12:47:71 | 0 | 57595
2 | 12:47:71 | 06:44:65 | 57596 | 87960
3 | 19:32:61 | 07:21:71 | 87961 | 121106
4 | 26:54:57 | 07:16:47 | 121107 | 153853
5 | 34:11:29 | 07:02:28 | 153854 | 185531
6 | 41:13:57 | 08:36:23 | 185532 | 224254
7 | 49:50:05 | 09:24:27 | 224255 | 266581
8 | 59:14:32 | 08:29:39 | 266582 | 304795
All Tracks
Album gain : -1.59 dB
Peak : 0.955872
Track 01
Filename : /Janna/01 Jangelma.flac
Pre-gap length : 00:02:00
Track gain : -4.58 dB
Peak : 0.955444
CRC32 hash (test run) : FAD7CC22
CRC32 hash : FAD7CC22
CRC32 hash (skip zero) : 4A3D9604
AccurateRip signature : CBACB82A
->Accurately ripped! (confidence 3)
Statistics
Read error : 0
Skipped (treated as error) : 0
Edge jitter error (maybe fixed) : 0
Atom jitter error (maybe fixed) : 0
Drift error (maybe fixed) : 0
Dropped bytes error (maybe fixed) : 0
Duplicated bytes error (maybe fixed) : 0
Track 02
Filename : /Janna/02 Baba.flac
Pre-gap length : 00:05:36
Track gain : -0.67 dB
Peak : 0.955444
CRC32 hash (test run) : 353AFE31
CRC32 hash : 353AFE31
CRC32 hash (skip zero) : DD0C2F39
AccurateRip signature : 801819C3
->Accurately ripped! (confidence 3)
Statistics
Read error : 0
Skipped (treated as error) : 0
Edge jitter error (maybe fixed) : 0
Atom jitter error (maybe fixed) : 0
Drift error (maybe fixed) : 0
Dropped bytes error (maybe fixed) : 0
Duplicated bytes error (maybe fixed) : 0
Track 03
Filename : /Janna/03 Sàng Xale Man.flac
Pre-gap length : 00:02:29
Track gain : -0.82 dB
Peak : 0.955353
CRC32 hash (test run) : 51A88106
CRC32 hash : 51A88106
CRC32 hash (skip zero) : 337ED91C
AccurateRip signature : 1897A550
->Accurately ripped! (confidence 3)
Statistics
Read error : 0
Skipped (treated as error) : 0
Edge jitter error (maybe fixed) : 0
Atom jitter error (maybe fixed) : 0
Drift error (maybe fixed) : 0
Dropped bytes error (maybe fixed) : 0
Duplicated bytes error (maybe fixed) : 0
Track 04
Filename : /Janna/04 Noon.flac
Pre-gap length : 00:02:59
Track gain : -3.16 dB
Peak : 0.955505
CRC32 hash (test run) : 9BE2857D
CRC32 hash : 9BE2857D
CRC32 hash (skip zero) : 38697E64
AccurateRip signature : 7C57F7CD
->Accurately ripped! (confidence 3)
Statistics
Read error : 0
Skipped (treated as error) : 0
Edge jitter error (maybe fixed) : 0
Atom jitter error (maybe fixed) : 0
Drift error (maybe fixed) : 0
Dropped bytes error (maybe fixed) : 0
Duplicated bytes error (maybe fixed) : 0
Track 05
Filename : /Janna/05 Fier.flac
Pre-gap length : 00:02:58
Track gain : -2.97 dB
Peak : 0.955383
CRC32 hash (test run) : 040B5D6E
CRC32 hash : 040B5D6E
CRC32 hash (skip zero) : EE8AD5E4
AccurateRip signature : 14864131
->Accurately ripped! (confidence 3)
Statistics
Read error : 0
Skipped (treated as error) : 0
Edge jitter error (maybe fixed) : 0
Atom jitter error (maybe fixed) : 0
Drift error (maybe fixed) : 0
Dropped bytes error (maybe fixed) : 0
Duplicated bytes error (maybe fixed) : 0
Track 06
Filename : /Janna/06 Njaarelu Adiye.flac
Pre-gap length : 00:01:60
Track gain : -0.22 dB
Peak : 0.955872
CRC32 hash (test run) : 899949E6
CRC32 hash : 899949E6
CRC32 hash (skip zero) : E03FB8B2
AccurateRip signature : 629255D5
->Accurately ripped! (confidence 3)
Statistics
Read error : 0
Skipped (treated as error) : 0
Edge jitter error (maybe fixed) : 0
Atom jitter error (maybe fixed) : 18
Drift error (maybe fixed) : 0
Dropped bytes error (maybe fixed) : 0
Duplicated bytes error (maybe fixed) : 0
Track 07
Filename : /Janna/07 Doxandéem.flac
Pre-gap length : 00:03:42
Track gain : 0.28 dB
Peak : 0.955597
CRC32 hash (test run) : 0B6CCAA5
CRC32 hash : 0B6CCAA5
CRC32 hash (skip zero) : 013EBA95
AccurateRip signature : 94297E21
->Accurately ripped! (confidence 3)
Statistics
Read error : 0
Skipped (treated as error) : 0
Edge jitter error (maybe fixed) : 0
Atom jitter error (maybe fixed) : 0
Drift error (maybe fixed) : 0
Dropped bytes error (maybe fixed) : 0
Duplicated bytes error (maybe fixed) : 0
Track 08
Filename : /Janna/08 Sicroula.flac
Pre-gap length : 00:02:09
Track gain : 1.54 dB
Peak : 0.955444
CRC32 hash (test run) : 351AAEFD
CRC32 hash : 351AAEFD
CRC32 hash (skip zero) : D93B8D59
AccurateRip signature : 93BAAAED
->Accurately ripped! (confidence 2)
Statistics
Read error : 0
Skipped (treated as error) : 0
Edge jitter error (maybe fixed) : 0
Atom jitter error (maybe fixed) : 0
Drift error (maybe fixed) : 0
Dropped bytes error (maybe fixed) : 0
Duplicated bytes error (maybe fixed) : 0
No errors occurred
End of status report
 
Содержание индексной карты (.CUE)
TITLE "Janna"
PERFORMER "Ernst Reijseger - Mola Sylla - Serigne C.M. Gueye"
REM GENRE "World"
REM DATE 2003
FILE "01 Jangelma.wav" WAVE
TRACK 01 AUDIO
TITLE "Jangelma"
SONGWRITER "Mola Sylla"
ISRC DEA290304700
INDEX 01 00:00:00
TRACK 02 AUDIO
TITLE "Baba"
SONGWRITER "Mola Sylla"
ISRC DEA290304700
INDEX 00 12:42:35
FILE "02 Baba.wav" WAVE
INDEX 01 00:00:00
TRACK 03 AUDIO
TITLE "Sang Xale Man"
SONGWRITER "Traditional"
ISRC DEA290304800
INDEX 00 06:42:36
FILE "03 Sang Xale Man.wav" WAVE
INDEX 01 00:00:00
TRACK 04 AUDIO
TITLE "Noon"
SONGWRITER "Mola Sylla"
ISRC DEA290304900
INDEX 00 07:19:12
FILE "04 Noon.wav" WAVE
INDEX 01 00:00:00
TRACK 05 AUDIO
TITLE "Fier"
SONGWRITER "Mola Sylla"
ISRC DEA290305000
INDEX 00 07:13:64
FILE "05 Fier.wav" WAVE
INDEX 01 00:00:00
TRACK 06 AUDIO
TITLE "Njaarelu Adiye"
SONGWRITER "Mola Sylla"
ISRC DEA290305100
INDEX 00 07:00:43
FILE "06 Njaarelu Adiye.wav" WAVE
INDEX 01 00:00:00
TRACK 07 AUDIO
TITLE "Doxandeem"
SONGWRITER "Mola Sylla"
ISRC DEA290305200
INDEX 00 08:32:56
FILE "07 Doxandeem.wav" WAVE
INDEX 01 00:00:00
TRACK 08 AUDIO
TITLE "Sicroula"
SONGWRITER "Mola Sylla"
ISRC DEA290305300
INDEX 00 09:22:18
FILE "08 Sicroula.wav" WAVE
INDEX 01 00:00:00
... релизы ERNST REIJSEGER на трекере ...
19:02
294
Нет комментариев. Ваш будет первым!