Поиск

(Jazz, Folk) [CD] Silent Bear - River Drum Child - 1997, FLAC (image+.cue), lossless

(Jazz, Folk) [CD] Silent Bear - River Drum Child - 1997, FLAC (image+.cue), lossless
Silent Bear - River Drum Child
Жанр: Jazz, Folk
Носитель: CD
Страна-производитель диска (релиза): US
Год издания: 1997
Издатель (лейбл): Wild Child Records
Номер по каталогу: 0735561042526
Страна исполнителя (группы): US
Аудиокодек: FLAC (*.flac)
Тип рипа: image+.cue
Битрейт аудио: lossless
Продолжительность: 00:44:32
Источник (релизер): my disc
Наличие сканов в содержимом раздачи: да
Треклист:
01. Bear Foot Stomp (6:00)
02. When The Clown Began To Sing (3:35)
03. Lady Of The Lake (3:19)
04. Kerouak's Child (4:59)
05. Seven Arrows (6:05)
06. Dusty Day (5:56)
07. Circle Around (1:49)
08. Roll On (3:15)
09. Kahlilimba (2:09)
10. River Drum Child (3:29)
11. Shamans Whisper (3:57)
 
Лог создания рипа
Exact Audio Copy V1.0 beta 3 from 29. August 2011
EAC extraction logfile from 22. April 2015, 20:02
Silent Bear / River Drum Child
Used drive : ASUS DRW-1814BLT Adapter: 3 ID: 0
Read mode : Secure
Utilize accurate stream : Yes
Defeat audio cache : Yes
Make use of C2 pointers : No
Read offset correction : 6
Overread into Lead-In and Lead-Out : No
Fill up missing offset samples with silence : Yes
Delete leading and trailing silent blocks : No
Null samples used in CRC calculations : Yes
Used interface : Installed external ASPI interface
Used output format : User Defined Encoder
Selected bitrate : 896 kBit/s
Quality : High
Add ID3 tag : No
Command line compressor : K:\Programm\eac\Exact Audio Copy\Flac\flac.exe
Additional command line options : -V -8 -T "Date=%year%" -T "Genre=%genre%" %source%
TOC of the extracted CD
Track | Start | Length | Start sector | End sector
---------------------------------------------------------
1 | 0:00.00 | 5:59.71 | 0 | 26995
2 | 5:59.71 | 3:34.42 | 26996 | 43087
3 | 9:34.38 | 3:19.31 | 43088 | 58043
4 | 12:53.69 | 4:59.22 | 58044 | 80490
5 | 17:53.16 | 6:04.39 | 80491 | 107829
6 | 23:57.55 | 5:56.21 | 107830 | 134550
7 | 29:54.01 | 1:48.38 | 134551 | 142688
8 | 31:42.39 | 3:14.45 | 142689 | 157283
9 | 34:57.09 | 2:08.47 | 157284 | 166930
10 | 37:05.56 | 3:29.31 | 166931 | 182636
11 | 40:35.12 | 3:56.63 | 182637 | 200399
Range status and errors
Selected range
Filename F:\EAC\Silent Bear - River Drum Child.wav
Peak level 100.0 %
Extraction speed 2.7 X
Range quality 100.0 %
Test CRC A3B7F9CE
Copy CRC A3B7F9CE
Copy OK
No errors occurred
AccurateRip summary
Track 1 accurately ripped (confidence 2) [5E15357E] (AR v1)
Track 2 accurately ripped (confidence 2) [5F7E6CF8] (AR v1)
Track 3 accurately ripped (confidence 2) [AE4032DD] (AR v1)
Track 4 accurately ripped (confidence 2) [75719F1D] (AR v1)
Track 5 accurately ripped (confidence 2) [5033CB2C] (AR v1)
Track 6 accurately ripped (confidence 2) [D9C36A1C] (AR v1)
Track 7 accurately ripped (confidence 2) [BEEBD286] (AR v1)
Track 8 accurately ripped (confidence 2) [E51B2574] (AR v1)
Track 9 accurately ripped (confidence 2) [53D56B2A] (AR v1)
Track 10 accurately ripped (confidence 2) [8E04FFEA] (AR v1)
Track 11 accurately ripped (confidence 2) [9CB7EE6C] (AR v1)
All tracks accurately ripped
End of status report
---- CUETools DB Plugin V2.1.4
[CTDB TOCID: MWxYeUICk5Die1914WKUTUV_Vdk-] found
Submit result: already submitted
Track | CTDB Status
1 | (1/1) Accurately ripped
2 | (1/1) Accurately ripped
3 | (1/1) Accurately ripped
4 | (1/1) Accurately ripped
5 | (1/1) Accurately ripped
6 | (1/1) Accurately ripped
7 | (1/1) Accurately ripped
8 | (1/1) Accurately ripped
9 | (1/1) Accurately ripped
10 | (1/1) Accurately ripped
11 | (1/1) Accurately ripped
==== Log checksum A0FA7B29DE59E5CD54023D20FFE018F3D7C2ACFEA0C0088EC1CB36120873A3E9 ====
 
Содержание индексной карты (.CUE)
REM GENRE Folk
REM DATE 1997
REM DISCID A50A700B
REM COMMENT ExactAudioCopy v1.0b3
CATALOG 0000000000000
PERFORMER "Silent Bear"
TITLE "River Drum Child"
FILE "Silent Bear - River Drum Child.flac" WAVE
TRACK 01 AUDIO
TITLE "BEAR FOOT STOMP"
INDEX 01 00:00:00
TRACK 02 AUDIO
TITLE "WHEN THE CLOWN BEGAN TO SING"
INDEX 00 05:56:66
INDEX 01 05:59:71
TRACK 03 AUDIO
TITLE "LADY OF THE LAKE"
INDEX 00 09:31:19
INDEX 01 09:34:38
TRACK 04 AUDIO
TITLE "KEROUAC'S CHILD"
INDEX 00 12:51:69
INDEX 01 12:53:69
TRACK 05 AUDIO
TITLE "SEVEN ARROWS"
INDEX 00 17:50:39
INDEX 01 17:53:16
TRACK 06 AUDIO
TITLE "DUSTY DAY"
INDEX 00 23:54:47
INDEX 01 23:57:55
TRACK 07 AUDIO
TITLE "CIRCLE AROUND"
INDEX 00 29:50:74
INDEX 01 29:54:01
TRACK 08 AUDIO
TITLE "ROLL ON"
INDEX 00 31:39:64
INDEX 01 31:42:39
TRACK 09 AUDIO
TITLE "KAHLILIMBA"
INDEX 00 34:54:36
INDEX 01 34:57:09
TRACK 10 AUDIO
TITLE "RIVER DRUM CHILD"
INDEX 00 37:03:09
INDEX 01 37:05:56
TRACK 11 AUDIO
TITLE "SHAMANS WHISPER"
INDEX 00 40:32:25
INDEX 01 40:35:12
 
Лог проверки качества
-----------------------
DON'T MODIFY THIS FILE
-----------------------
PERFORMER: auCDtect Task Manager, ver. 1.6.0 RC1 build 1.6.0.1
Copyright (c) 2008-2010 y-soft. All rights reserved
http://y-soft.org
ANALYZER: auCDtect: CD records authenticity detector, version 0.8.2
Copyright (c) 2004 Oleg Berngardt. All rights reserved.
Copyright (c) 2004 Alexander Djourik. All rights reserved.
FILE: Silent Bear - River Drum Child.flac
Size: 259458304 Hash: 0691D9E0A733C18C89512327435F5221 Accuracy: -m0
Conclusion: CDDA 100%
Signature: 830EB1C8510540D66E57C801C699CD0D2B6EF7F8
 
Скриншот спектра частот
19:02
329
Нет комментариев. Ваш будет первым!