Поиск

(World Fusion, Latin Jazz, Saxophone Jazz) Victor Assis Brasil - The Legacy - 2002, FLAC (image+.cue), lossless

Треклист:
Victor Assis Brasil - The Legacy

Жанр: World Fusion, Latin Jazz, Saxophone Jazz
Год издания диска: 2002
Издатель (лейбл): Atracao
Номер по каталогу: ATR 31058
Страна: Rio de Janeiro, Brazil
Аудиокодек: FLAC (*.flac)
Тип рипа: image+.cue
Битрейт аудио: lossless
Продолжительность: 00:43:57
Источник (релизер):rpt
Наличие сканов в содержимом раздачи: да

Victor Assis Brasil (sax alto)
Cláudio Roditi (trumpet in "Children")
Don Salvador (piano, organ)
Hélio Delmiro (guitar)
Edison Lobo (bass)
Edison Machado (drums)

01 - Gingerbread Boy [6:16]
02 - Marília [6:45]
03 - Senegal (40 graus à sombra) [9:13]
04 - Children (Ao amigo Quartin) [13:52]
05 - Marília (bonus track) [7:49]

Victor Assis Brasil died in Rio De Janeiro on 14 April 1981.

 
Лог создания рипа
Exact Audio Copy V1.0 beta 1 from 15. November 2010
EAC extraction logfile from 11. April 2011, 22:50
Victor Assis Brasil / The Legacy
Used drive : HL-DT-STDVD-RAM GH22NS30 Adapter: 5 ID: 0
Read mode : Secure
Utilize accurate stream : Yes
Defeat audio cache : Yes
Make use of C2 pointers : No
Read offset correction : 102
Overread into Lead-In and Lead-Out : No
Fill up missing offset samples with silence : Yes
Delete leading and trailing silent blocks : No
Null samples used in CRC calculations : Yes
Used interface : Installed external ASPI interface
Used output format : Internal WAV Routines
Sample format : 44.100 Hz; 16 Bit; Stereo
TOC of the extracted CD
Track | Start | Length | Start sector | End sector
---------------------------------------------------------
1 | 0:00.00 | 6:16.07 | 0 | 28206
2 | 6:16.07 | 6:45.50 | 28207 | 58631
3 | 13:01.57 | 9:13.53 | 58632 | 100159
4 | 22:15.35 | 13:52.12 | 100160 | 162571
5 | 36:07.47 | 7:49.55 | 162572 | 197801
Range status and errors
Selected range
Filename D:\EAC\Victor Assis Brasil - The Legacy\Victor Assis Brasil - The Legacy.wav
Peak level 100.0 %
Extraction speed 0.4 X
Range quality 100.0 %
Test CRC 2E949831
Copy CRC 2E949831
Copy OK
No errors occurred
AccurateRip summary
Track 1 not present in database
Track 2 not present in database
Track 3 not present in database
Track 4 not present in database
Track 5 not present in database
None of the tracks are present in the AccurateRip database
End of status report
==== Log checksum 4F8E33FD3836C3835CE73B3B935A776DC320BC286B158BEC0A90237CC561091B ====
 
Содержание индексной карты (.CUE)
REM GENRE Jazz
REM DATE 1999
REM DISCID 460A4D05
REM COMMENT "ExactAudioCopy v1.0b1"
PERFORMER "Victor Assis Brasil"
TITLE "The Legacy"
FILE "Victor Assis Brasil - The Legacy.flac" WAVE
TRACK 01 AUDIO
TITLE "Gingerbread boy"
PERFORMER "Victor Assis Brasil"
ISRC BRAPI9900087
INDEX 01 00:00:00
TRACK 02 AUDIO
TITLE "Marнlia"
PERFORMER "Victor Assis Brasil"
ISRC BRAPI9900088
INDEX 00 06:14:04
INDEX 01 06:16:07
TRACK 03 AUDIO
TITLE "Senegal (40є а sombra)"
PERFORMER "Victor Assis Brasil"
ISRC BRAPI9900089
INDEX 00 12:59:54
INDEX 01 13:01:57
TRACK 04 AUDIO
TITLE "Children"
PERFORMER "Victor Assis Brasil"
ISRC BRAPI9900090
INDEX 00 22:14:33
INDEX 01 22:15:35
TRACK 05 AUDIO
TITLE "Marнlia (Bonus track)"
PERFORMER "Victor Assis Brasil"
ISRC BRAPI9900088
INDEX 00 36:05:44
INDEX 01 36:07:47
21:30
271
Нет комментариев. Ваш будет первым!