Поиск

(Post-Bop, African Jazz) Dollar Brand - Round Midnight At The Montmartre - 1988, FLAC (tracks+.cue), lossless

(Post-Bop, African Jazz) Dollar Brand - Round Midnight At The Montmartre - 1988, FLAC (tracks+.cue), lossless
Треклист:
Dollar Brand - Round Midnight At The Montmartre
Жанр: Post-Bop, African Jazz
Страна-производитель диска: Germany
Год издания диска: 1988
Издатель (лейбл): Black Lion Records
Номер по каталогу: BLCD 760111
Аудиокодек: FLAC (*.flac)
Тип рипа: tracks+.cue
Битрейт аудио: lossless
Продолжительность: 49:55
Источник (релизер): собственный рип с оригинального диска.
Наличие сканов в содержимом раздачи: да
Треклист:
01. Stride
02. Tintiyana
03. Obluegato
04. Dream
05. Honey
06. 'Round Midnight
07. Airolo Blue
08. Light Blue
 
Лог создания рипа
Exact Audio Copy V0.99 prebeta 5 from 4. May 2009
EAC extraction logfile from 13. June 2011, 9:12
Dollar Brand / Round Midnight at the Montmartre
Used drive : TSSTcorpCDDVDW SH-S222A Adapter: 1 ID: 0
Read mode : Secure
Utilize accurate stream : Yes
Defeat audio cache : Yes
Make use of C2 pointers : No
Read offset correction : 6
Overread into Lead-In and Lead-Out : No
Fill up missing offset samples with silence : Yes
Delete leading and trailing silent blocks : No
Null samples used in CRC calculations : Yes
Used interface : Installed external ASPI interface
Gap handling : Appended to previous track
Used output format : User Defined Encoder
Selected bitrate : 768 kBit/s
Quality : High
Add ID3 tag : No
Command line compressor : C:\Tool\Compress\FLAC\flac.exe
Additional command line options : -8 -V -T "ARTIST=%a" -T "TITLE=%t" -T "ALBUM=%g" -T "DATE=%y" -T "TRACKNUMBER=%n" -T "TOTALTRACKS=%x" -T "GENRE=%m" -T "ALBUM ARTIST=%v" -T "COMMENT=EAC V0.99 prebeta 5, Secure Mode, Test & Copy, AccurateRip, FLAC -8" %s
TOC of the extracted CD
Track | Start | Length | Start sector | End sector
---------------------------------------------------------
1 | 0:00.00 | 9:35.30 | 0 | 43154
2 | 9:35.30 | 4:26.35 | 43155 | 63139
3 | 14:01.65 | 6:49.15 | 63140 | 93829
4 | 20:51.05 | 7:54.70 | 93830 | 129449
5 | 28:46.00 | 4:36.20 | 129450 | 150169
6 | 33:22.20 | 6:26.70 | 150170 | 179189
7 | 39:49.15 | 3:14.07 | 179190 | 193746
8 | 43:03.22 | 6:52.05 | 193747 | 224651
Track 1
Filename C:\! UPLOAD\Dollar Brand - Round Midnight At The Montmartre (1988) [FLAC] {Black Lion}\01 - The Stride.wav
Pre-gap length 0:00:02.00
Peak level 54.6 %
Track quality 100.0 %
Test CRC 5611C768
Copy CRC 5611C768
Accurately ripped (confidence 1) [2F204B56]
Copy OK
Track 2
Filename C:\! UPLOAD\Dollar Brand - Round Midnight At The Montmartre (1988) [FLAC] {Black Lion}\02 - Tintyana.wav
Peak level 49.3 %
Track quality 100.0 %
Test CRC 208FCF7E
Copy CRC 208FCF7E
Accurately ripped (confidence 1) [90BA8CFC]
Copy OK
Track 3
Filename C:\! UPLOAD\Dollar Brand - Round Midnight At The Montmartre (1988) [FLAC] {Black Lion}\03 - Obluegato.wav
Peak level 26.9 %
Track quality 100.0 %
Test CRC 815B468A
Copy CRC 815B468A
Accurately ripped (confidence 1) [2B4A330B]
Copy OK
Track 4
Filename C:\! UPLOAD\Dollar Brand - Round Midnight At The Montmartre (1988) [FLAC] {Black Lion}\04 - The Dream.wav
Peak level 54.1 %
Track quality 100.0 %
Test CRC F2602D59
Copy CRC F2602D59
Accurately ripped (confidence 1) [082D7E98]
Copy OK
Track 5
Filename C:\! UPLOAD\Dollar Brand - Round Midnight At The Montmartre (1988) [FLAC] {Black Lion}\05 - Honey.wav
Peak level 52.0 %
Track quality 99.9 %
Test CRC 9FFC63D3
Copy CRC 9FFC63D3
Accurately ripped (confidence 1) [62CF0A99]
Copy OK
Track 6
Filename C:\! UPLOAD\Dollar Brand - Round Midnight At The Montmartre (1988) [FLAC] {Black Lion}\06 - Round Midnight.wav
Peak level 40.8 %
Track quality 100.0 %
Test CRC 5246BF44
Copy CRC 5246BF44
Accurately ripped (confidence 1) [E76FCCA3]
Copy OK
Track 7
Filename C:\! UPLOAD\Dollar Brand - Round Midnight At The Montmartre (1988) [FLAC] {Black Lion}\07 - Airolo Blue.wav
Peak level 47.8 %
Track quality 100.0 %
Test CRC C4F18369
Copy CRC C4F18369
Accurately ripped (confidence 1) [AAB0BDC4]
Copy OK
Track 8
Filename C:\! UPLOAD\Dollar Brand - Round Midnight At The Montmartre (1988) [FLAC] {Black Lion}\08 - Light Blue.wav
Peak level 39.9 %
Track quality 99.9 %
Test CRC 1C1121FF
Copy CRC 1C1121FF
Accurately ripped (confidence 1) [7D0D603C]
Copy OK
All tracks accurately ripped
No errors occurred
End of status report
 
Содержание индексной карты (.CUE)
REM GENRE Jazz
REM DATE 1988
REM DISCID 6A0BB308
REM COMMENT "ExactAudioCopy v0.99pb5"
CATALOG 0000000000000
PERFORMER "Dollar Brand"
TITLE "Round Midnight at the Montmartre"
FILE "01 - The Stride.wav" WAVE
TRACK 01 AUDIO
TITLE "The Stride"
PERFORMER "Dollar Brand"
FLAGS PRE
INDEX 01 00:00:00
FILE "02 - Tintyana.wav" WAVE
TRACK 02 AUDIO
TITLE "Tintyana"
PERFORMER "Dollar Brand"
FLAGS PRE
INDEX 01 00:00:00
FILE "03 - Obluegato.wav" WAVE
TRACK 03 AUDIO
TITLE "Obluegato"
PERFORMER "Dollar Brand"
FLAGS PRE
INDEX 01 00:00:00
FILE "04 - The Dream.wav" WAVE
TRACK 04 AUDIO
TITLE "The Dream"
PERFORMER "Dollar Brand"
FLAGS PRE
INDEX 01 00:00:00
FILE "05 - Honey.wav" WAVE
TRACK 05 AUDIO
TITLE "Honey"
PERFORMER "Dollar Brand"
FLAGS PRE
INDEX 01 00:00:00
FILE "06 - Round Midnight.wav" WAVE
TRACK 06 AUDIO
TITLE "Round Midnight"
PERFORMER "Dollar Brand"
FLAGS PRE
INDEX 01 00:00:00
FILE "07 - Airolo Blue.wav" WAVE
TRACK 07 AUDIO
TITLE "Airolo Blue"
PERFORMER "Dollar Brand"
FLAGS PRE
INDEX 01 00:00:00
FILE "08 - Light Blue.wav" WAVE
TRACK 08 AUDIO
TITLE "Light Blue"
PERFORMER "Dollar Brand"
FLAGS PRE
INDEX 01 00:00:00
Доп. информация:
Recorded at the Montmartre Jazzhus, Copenhagen, 30th January 1965, by courtesy of Herluf Kamp Larsen.
 
Об альбоме (сборнике) ~ Scott Yanow
This is an interesting early Abdullah Ibrahim CD, recorded when the pianist-composer was still known as Dollar Brand. Teamed with bassist Johnny Gertze and drummer Makaya Ntshoko on six of the eight numbers (two are piano solos), Ibrahim sounds quite advanced, showing off the influence of Thelonious Monk and perhaps Herbie Nichols but not much of his own South African heritage; that would come later. Ibrahim performs six of his originals plus two Monk tunes ("'Round Midnight" and "Light Blue") with originality and a certain amount of unpredictability.
 
Состав
Dollar Brand - piano
Johnny Gertze - bass (omit 3, 8)
Makaya Ntshoko - drums (omit 3, 8)
21:30
253
Нет комментариев. Ваш будет первым!