Поиск

(World Fusion, Latin Jazz) Ray Barretto - Beyond The Barrio - 1995, FLAC (tracks+.cue), lossless

Треклист:
Ray Barretto - Beyond The Barrio
Жанр: World Fusion, Latin Jazz
Страна-производитель диска: England
Год издания диска: 1995
Издатель (лейбл): Charly Records Ltd
Номер по каталогу: CDHOT 518
Страна: Brooklyn, NY
Аудиокодек: FLAC (*.flac)
Тип рипа: tracks+.cue
Битрейт аудио: lossless
Продолжительность: 01:14:01
Источник (релизер): dik
Наличие сканов в содержимом раздачи: да

01. Nadie Se Salva La Rumba [05:46]
02. Tu Propio Dolor [04:18]
03. Lucretia The Cat [05:34]
04. Aguadilla [04:10]
05. Vive Y Vacila [04:05]
06. Canto Abacua [07:00]
07. Canto Abacua [07:00]
08. Lo Tuyo Lo Mio [05:34]
09. Lo Tuyo Lo Mio [05:34]
10. Ya No Puede Ser [05:14]
11. Tin Tin Deo [08:24]
12. Prestame Tu Mujer [06:07]
13. Eras [05:09]
 
Лог создания рипа
Exact Audio Copy V0.99 prebeta 5 from 4. May 2009
EAC extraction logfile from 15. August 2011, 19:58
Ray Barretto / Beyond The Barrio
Used drive : SONY CDRW/DVD CRX835E Adapter: 4 ID: 0
Read mode : Secure
Utilize accurate stream : Yes
Defeat audio cache : Yes
Make use of C2 pointers : No
Read offset correction : 6
Overread into Lead-In and Lead-Out : No
Fill up missing offset samples with silence : Yes
Delete leading and trailing silent blocks : No
Null samples used in CRC calculations : Yes
Used interface : Native Win32 interface for Win NT & 2000
Gap handling : Appended to previous track
Used output format : User Defined Encoder
Selected bitrate : 1024 kBit/s
Quality : High
Add ID3 tag : No
Command line compressor : C:\Program Files (x86)\Exact Audio Copy\Flac\flac.exe
Additional command line options : -8 -V -T "ARTIST=%a" -T "TITLE=%t" -T "ALBUM=%g" -T "DATE=%y" -T "TRACKNUMBER=%n" -T "TOTALTRACKS=%x" -T "GENRE=%m" -T "ALBUM ARTIST=%v" -T "ALBUMARTIST=%v" -T "COMMENT=EAC V0.99 prebeta 5, Secure Mode, Test & Copy, Accurat
TOC of the extracted CD
Track | Start | Length | Start sector | End sector
---------------------------------------------------------
1 | 0:00.32 | 5:49.13 | 32 | 26219
2 | 5:49.45 | 4:20.72 | 26220 | 45791
3 | 10:10.42 | 5:35.33 | 45792 | 70949
4 | 15:46.00 | 4:13.12 | 70950 | 89936
5 | 19:59.12 | 4:08.73 | 89937 | 108609
6 | 24:08.10 | 7:02.30 | 108610 | 140289
7 | 31:10.40 | 5:45.57 | 140290 | 166221
8 | 36:56.22 | 5:36.70 | 166222 | 191491
9 | 42:33.17 | 4:16.23 | 191492 | 210714
10 | 46:49.40 | 5:17.10 | 210715 | 234499
11 | 52:06.50 | 8:26.55 | 234500 | 272504
12 | 60:33.30 | 6:10.27 | 272505 | 300281
13 | 66:43.57 | 5:09.33 | 300282 | 323489
Track 1
Filename C:\UPLOAD\Ray Barretto - Beyond The Barrio (1995) [FLAC] { Europe, Charly Records Ltd, CDHOT 518 }\01 - Nadie Se Salva La Rumba.wav
Pre-gap length 0:00:02.42
Peak level 89.5 %
Track quality 100.0 %
Test CRC 7DF9E15D
Copy CRC 7DF9E15D
Copy OK
Track 2
Filename C:\UPLOAD\Ray Barretto - Beyond The Barrio (1995) [FLAC] { Europe, Charly Records Ltd, CDHOT 518 }\02 - Tu Propio Dolor.wav
Pre-gap length 0:00:02.33
Peak level 88.1 %
Track quality 100.0 %
Test CRC 38F1555D
Copy CRC 38F1555D
Copy OK
Track 3
Filename C:\UPLOAD\Ray Barretto - Beyond The Barrio (1995) [FLAC] { Europe, Charly Records Ltd, CDHOT 518 }\03 - Lucretia The Cat.wav
Pre-gap length 0:00:02.36
Peak level 89.1 %
Track quality 100.0 %
Test CRC DC8FEF12
Copy CRC DC8FEF12
Copy OK
Track 4
Filename C:\UPLOAD\Ray Barretto - Beyond The Barrio (1995) [FLAC] { Europe, Charly Records Ltd, CDHOT 518 }\04 - Aguadilla.wav
Pre-gap length 0:00:01.44
Peak level 88.8 %
Track quality 100.0 %
Test CRC 49624100
Copy CRC 49624100
Copy OK
Track 5
Filename C:\UPLOAD\Ray Barretto - Beyond The Barrio (1995) [FLAC] { Europe, Charly Records Ltd, CDHOT 518 }\05 - Vive Y Vacila.wav
Pre-gap length 0:00:02.36
Peak level 91.1 %
Track quality 100.0 %
Test CRC D0ABCEE3
Copy CRC D0ABCEE3
Copy OK
Track 6
Filename C:\UPLOAD\Ray Barretto - Beyond The Barrio (1995) [FLAC] { Europe, Charly Records Ltd, CDHOT 518 }\06 - Canto Abacua.wav
Pre-gap length 0:00:03.17
Peak level 88.7 %
Track quality 99.9 %
Test CRC 177FAB1D
Copy CRC 177FAB1D
Copy OK
Track 7
Filename C:\UPLOAD\Ray Barretto - Beyond The Barrio (1995) [FLAC] { Europe, Charly Records Ltd, CDHOT 518 }\07 - Cancion Para El Niсo.wav
Pre-gap length 0:00:02.37
Peak level 88.1 %
Track quality 100.0 %
Test CRC 28EB3E90
Copy CRC 28EB3E90
Copy OK
Track 8
Filename C:\UPLOAD\Ray Barretto - Beyond The Barrio (1995) [FLAC] { Europe, Charly Records Ltd, CDHOT 518 }\08 - Lo Tuyo Lo Mio.wav
Pre-gap length 0:00:02.00
Peak level 88.5 %
Track quality 100.0 %
Test CRC 968DFAE1
Copy CRC 968DFAE1
Copy OK
Track 9
Filename C:\UPLOAD\Ray Barretto - Beyond The Barrio (1995) [FLAC] { Europe, Charly Records Ltd, CDHOT 518 }\09 - Aguardiente De Caсa.wav
Pre-gap length 0:00:02.26
Peak level 89.0 %
Track quality 100.0 %
Test CRC F479CE02
Copy CRC F479CE02
Copy OK
Track 10
Filename C:\UPLOAD\Ray Barretto - Beyond The Barrio (1995) [FLAC] { Europe, Charly Records Ltd, CDHOT 518 }\10 - Ya No Puede Ser.wav
Pre-gap length 0:00:02.33
Peak level 88.7 %
Track quality 99.9 %
Test CRC 38C8315A
Copy CRC 38C8315A
Copy OK
Track 11
Filename C:\UPLOAD\Ray Barretto - Beyond The Barrio (1995) [FLAC] { Europe, Charly Records Ltd, CDHOT 518 }\11 - Tin Tin Deo.wav
Pre-gap length 0:00:02.46
Peak level 88.4 %
Track quality 99.9 %
Test CRC 36942E1A
Copy CRC 36942E1A
Copy OK
Track 12
Filename C:\UPLOAD\Ray Barretto - Beyond The Barrio (1995) [FLAC] { Europe, Charly Records Ltd, CDHOT 518 }\12 - Prestame Tu Mujer.wav
Pre-gap length 0:00:02.40
Peak level 92.0 %
Track quality 100.0 %
Test CRC 4458AB8D
Copy CRC 4458AB8D
Copy OK
Track 13
Filename C:\UPLOAD\Ray Barretto - Beyond The Barrio (1995) [FLAC] { Europe, Charly Records Ltd, CDHOT 518 }\13 - Eras.wav
Pre-gap length 0:00:02.40
Peak level 88.5 %
Track quality 100.0 %
Test CRC 3D2ED907
Copy CRC 3D2ED907
Copy OK
No errors occurred
End of status report
 
Содержание индексной карты (.CUE)
REM GENRE Salsa
REM DATE 1995
REM DISCID 9B10D90D
REM COMMENT "ExactAudioCopy v0.99pb5"
PERFORMER "Ray Barretto"
TITLE "Beyond The Barrio"
FILE "01 - Nadie Se Salva La Rumba.wav" WAVE
TRACK 01 AUDIO
TITLE "Nadie Se Salva La Rumba"
PERFORMER "Ray Barretto"
PREGAP 00:00:32
INDEX 01 00:00:00
TRACK 02 AUDIO
TITLE "Tu Propio Dolor"
PERFORMER "Ray Barretto"
INDEX 00 05:46:63
FILE "02 - Tu Propio Dolor.wav" WAVE
INDEX 01 00:00:00
TRACK 03 AUDIO
TITLE "Lucretia The Cat"
PERFORMER "Ray Barretto"
INDEX 00 04:18:45
FILE "03 - Lucretia The Cat.wav" WAVE
INDEX 01 00:00:00
TRACK 04 AUDIO
TITLE "Aguadilla"
PERFORMER "Ray Barretto"
INDEX 00 05:34:00
FILE "04 - Aguadilla.wav" WAVE
INDEX 01 00:00:00
TRACK 05 AUDIO
TITLE "Vive Y Vacila"
PERFORMER "Ray Barretto"
INDEX 00 04:10:60
FILE "05 - Vive Y Vacila.wav" WAVE
INDEX 01 00:00:00
TRACK 06 AUDIO
TITLE "Canto Abacua"
PERFORMER "Ray Barretto"
INDEX 00 04:05:60
FILE "06 - Canto Abacua.wav" WAVE
INDEX 01 00:00:00
TRACK 07 AUDIO
TITLE "Cancion Para El Niсo"
PERFORMER "Ray Barretto"
INDEX 00 07:00:02
FILE "07 - Cancion Para El Niсo.wav" WAVE
INDEX 01 00:00:00
TRACK 08 AUDIO
TITLE "Lo Tuyo Lo Mio"
PERFORMER "Ray Barretto"
INDEX 00 05:43:57
FILE "08 - Lo Tuyo Lo Mio.wav" WAVE
INDEX 01 00:00:00
TRACK 09 AUDIO
TITLE "Aguardiente De Caсa"
PERFORMER "Ray Barretto"
INDEX 00 05:34:50
FILE "09 - Aguardiente De Caсa.wav" WAVE
INDEX 01 00:00:00
TRACK 10 AUDIO
TITLE "Ya No Puede Ser"
PERFORMER "Ray Barretto"
INDEX 00 04:13:73
FILE "10 - Ya No Puede Ser.wav" WAVE
INDEX 01 00:00:00
TRACK 11 AUDIO
TITLE "Tin Tin Deo"
PERFORMER "Ray Barretto"
INDEX 00 05:14:50
FILE "11 - Tin Tin Deo.wav" WAVE
INDEX 01 00:00:00
TRACK 12 AUDIO
TITLE "Prestame Tu Mujer"
PERFORMER "Ray Barretto"
INDEX 00 08:24:25
FILE "12 - Prestame Tu Mujer.wav" WAVE
INDEX 01 00:00:00
TRACK 13 AUDIO
TITLE "Eras"
PERFORMER "Ray Barretto"
INDEX 00 06:07:72
FILE "13 - Eras.wav" WAVE
INDEX 01 00:00:00
00:47
345
Нет комментариев. Ваш будет первым!