Поиск

(Bossa Nova, Latin Jazz) Sergio Mendes — The Great Arrival (1966) / The Beat Of Brazil (1967) (2LPs on 1CD) — 2000, FLAC (image+.cue), lossless

(Bossa Nova, Latin Jazz) Sergio Mendes — The Great Arrival (1966) / The Beat Of Brazil (1967) (2LPs on 1CD) — 2000, FLAC (image+.cue), lossless
Sergio Mendes — The Great Arrival (1966) / The Beat Of Brazil (1967)
Жанр: Bossa Nova, Latin Jazz
Год издания диска: 2000
Издатель (лейбл): Atlantic/Warner Jazz
Номер по каталогу: 8122754402
Аудиокодек: FLAC (*.flac)
Тип рипа: image+.cue
Битрейт аудио: lossless
Продолжительность: 62:30
Риппер: intothe
Наличие сканов в содержимом раздачи: да
Треклист:
____The Great Arrival
01. The Great Arrival (Cheganca) (2:19)
02. Monday, Monday (2:33)
03. Carnaval (2:41)
04. Cancao Do Amanhecer (2:49)
05. Here's That Rainy Day (2:23)
06. Boranda (2:42)
07. Nana (2:35)
08. Bonita (3:25)
09. Morning (2:39)
10. Don't Go Breaking My Heart (2:34)
11. Tristeza De Amar (3:19)
12. Girl Talk (2:26)
____The Beat Of Brazil
13. Nana (2:24)
14. Amor Em Paz (Love In Peace) (2:57)
15. Garota De Ipanema (The Girl From Ipanema) (3:17)
16. Coisa No. 2 (2:47)
17. Primitivo (3:59)
18. Ela E Carioca (She's A Carioca) (2:27)
19. Corcovado (4:10)
20. Noa Noa (2:22)
21. Desafinado (3:21)
22. Neurotico (2:22)
 
Лог создания рипа
Exact Audio Copy V0.99 prebeta 5 from 4. May 2009
EAC extraction logfile from 3. November 2011, 8:34
Sergio Mendes / The Great Arrival ; The Beat Of Brazil
Used drive : _NEC DVD_RW ND-3500AG Adapter: 0 ID: 0
Read mode : Secure
Utilize accurate stream : Yes
Defeat audio cache : Yes
Make use of C2 pointers : No
Read offset correction : 48
Overread into Lead-In and Lead-Out : No
Fill up missing offset samples with silence : Yes
Delete leading and trailing silent blocks : No
Null samples used in CRC calculations : Yes
Used interface : Native Win32 interface for Win NT & 2000
Used output format : User Defined Encoder
Selected bitrate : 768 kBit/s
Quality : High
Add ID3 tag : No
Command line compressor : C:\Program Files\Exact Audio Copy\FLAC\FLAC.EXE
Additional command line options : -6 -V -T "ARTIST=%a" -T "TITLE=%t" -T "ALBUM=%g" -T "DATE=%y" -T "TRACKNUMBER=%n" -T "GENRE=%m" -T "COMMENT=%e" %s -o %d
TOC of the extracted CD
Track | Start | Length | Start sector | End sector
---------------------------------------------------------
1 | 0:00.00 | 2:19.00 | 0 | 10424
2 | 2:19.00 | 2:32.62 | 10425 | 21886
3 | 4:51.62 | 2:40.43 | 21887 | 33929
4 | 7:32.30 | 2:48.57 | 33930 | 46586
5 | 10:21.12 | 2:22.70 | 46587 | 57306
6 | 12:44.07 | 2:41.40 | 57307 | 69421
7 | 15:25.47 | 2:35.35 | 69422 | 81081
8 | 18:01.07 | 3:24.63 | 81082 | 96444
9 | 21:25.70 | 2:38.52 | 96445 | 108346
10 | 24:04.47 | 2:34.28 | 108347 | 119924
11 | 26:39.00 | 3:18.60 | 119925 | 134834
12 | 29:57.60 | 2:26.30 | 134835 | 145814
13 | 32:24.15 | 2:24.27 | 145815 | 156641
14 | 34:48.42 | 2:56.60 | 156642 | 169901
15 | 37:45.27 | 3:16.63 | 169902 | 184664
16 | 41:02.15 | 2:47.35 | 184665 | 197224
17 | 43:49.50 | 3:58.57 | 197225 | 215131
18 | 47:48.32 | 2:27.35 | 215132 | 226191
19 | 50:15.67 | 4:09.68 | 226192 | 244934
20 | 54:25.60 | 2:21.52 | 244935 | 255561
21 | 56:47.37 | 3:21.15 | 255562 | 270651
22 | 60:08.52 | 2:21.53 | 270652 | 281279
Range status and errors
Selected range
Filename J:\eMusic\Rip\Sergio Mendes - The Great Arrival ; The Beat Of Brazil.wav
Peak level 100.0 %
Range quality 99.9 %
Copy CRC 10B2464D
Copy OK
No errors occurred
AccurateRip summary
Track 1 accurately ripped (confidence 4) [705F232D]
Track 2 accurately ripped (confidence 4) [BF8BAE19]
Track 3 accurately ripped (confidence 4) [1BEBAAC7]
Track 4 accurately ripped (confidence 4) [BEF2ABE8]
Track 5 accurately ripped (confidence 4) [7D039C80]
Track 6 accurately ripped (confidence 4) [6E1C72D0]
Track 7 accurately ripped (confidence 4) [D8443E7F]
Track 8 accurately ripped (confidence 4) [42D5FB57]
Track 9 accurately ripped (confidence 4) [4526DA94]
Track 10 accurately ripped (confidence 4) [05DC847C]
Track 11 accurately ripped (confidence 4) [49AAA10A]
Track 12 accurately ripped (confidence 4) [D346EFA2]
Track 13 accurately ripped (confidence 4) [9965577B]
Track 14 accurately ripped (confidence 4) [34CDF5F1]
Track 15 accurately ripped (confidence 4) [1BDF525B]
Track 16 accurately ripped (confidence 4) [FC30E297]
Track 17 accurately ripped (confidence 4) [1A195B8C]
Track 18 accurately ripped (confidence 4) [8BC56906]
Track 19 accurately ripped (confidence 4) [18CFA2D8]
Track 20 accurately ripped (confidence 4) [E5838F78]
Track 21 accurately ripped (confidence 4) [2D5F4E8C]
Track 22 accurately ripped (confidence 4) [4864EA5F]
All tracks accurately ripped
End of status report
 
Содержание индексной карты (.CUE)
REM GENRE Jazz
REM DATE 2000
REM DISCID 370EA616
REM COMMENT "ExactAudioCopy v0.99pb5"
PERFORMER "Sergio Mendes"
TITLE "The Great Arrival (1966) / The Beat Of Brazil (1967)"
FILE "Sergio Mendes - Great Arrival - Beat Of Brazil.flac" WAVE
TRACK 01 AUDIO
TITLE "The Great Arrival (Cheganca)"
PERFORMER "Sergio Mendes"
INDEX 01 00:00:00
TRACK 02 AUDIO
TITLE "Monday, Monday"
PERFORMER "Sergio Mendes"
INDEX 00 02:16:72
INDEX 01 02:19:00
TRACK 03 AUDIO
TITLE "Carnaval"
PERFORMER "Sergio Mendes"
INDEX 00 04:49:25
INDEX 01 04:51:62
TRACK 04 AUDIO
TITLE "Cancao Do Amanhecer"
PERFORMER "Sergio Mendes"
INDEX 00 07:30:10
INDEX 01 07:32:30
TRACK 05 AUDIO
TITLE "Here's That Rainy Day"
PERFORMER "Sergio Mendes"
INDEX 00 10:18:70
INDEX 01 10:21:12
TRACK 06 AUDIO
TITLE "Boranda"
PERFORMER "Sergio Mendes"
INDEX 00 12:41:22
INDEX 01 12:44:07
TRACK 07 AUDIO
TITLE "Nana"
PERFORMER "Sergio Mendes"
INDEX 00 15:22:72
INDEX 01 15:25:47
TRACK 08 AUDIO
TITLE "Bonita"
PERFORMER "Sergio Mendes"
INDEX 00 17:59:02
INDEX 01 18:01:07
TRACK 09 AUDIO
TITLE "Morning"
PERFORMER "Sergio Mendes"
INDEX 00 21:23:40
INDEX 01 21:25:70
TRACK 10 AUDIO
TITLE "Don't Go Breaking My Heart"
PERFORMER "Sergio Mendes"
INDEX 00 24:02:15
INDEX 01 24:04:47
TRACK 11 AUDIO
TITLE "Tristeza De Amar"
PERFORMER "Sergio Mendes"
INDEX 00 26:35:42
INDEX 01 26:39:00
TRACK 12 AUDIO
TITLE "Girl Talk"
PERFORMER "Sergio Mendes"
INDEX 00 29:55:42
INDEX 01 29:57:60
TRACK 13 AUDIO
TITLE "Nana"
PERFORMER "Sergio Mendes"
INDEX 00 32:21:12
INDEX 01 32:24:15
TRACK 14 AUDIO
TITLE "Amor Em Paz (Love In Peace)"
PERFORMER "Sergio Mendes"
INDEX 00 34:45:22
INDEX 01 34:48:42
TRACK 15 AUDIO
TITLE "Garota De Ipanema (The Girl From Ipanema)"
PERFORMER "Sergio Mendes"
INDEX 00 37:42:15
INDEX 01 37:45:27
TRACK 16 AUDIO
TITLE "Coisa No. 2"
PERFORMER "Sergio Mendes"
INDEX 00 40:59:17
INDEX 01 41:02:15
TRACK 17 AUDIO
TITLE "Primitivo"
PERFORMER "Sergio Mendes"
INDEX 00 43:46:25
INDEX 01 43:49:50
TRACK 18 AUDIO
TITLE "Ela E Carioca (She's A Carioca)"
PERFORMER "Sergio Mendes"
INDEX 00 47:45:22
INDEX 01 47:48:32
TRACK 19 AUDIO
TITLE "Corcovado"
PERFORMER "Sergio Mendes"
INDEX 00 50:12:37
INDEX 01 50:15:67
TRACK 20 AUDIO
TITLE "Noa Noa"
PERFORMER "Sergio Mendes"
INDEX 00 54:22:52
INDEX 01 54:25:60
TRACK 21 AUDIO
TITLE "Desafinado"
PERFORMER "Sergio Mendes"
INDEX 00 56:44:40
INDEX 01 56:47:37
TRACK 22 AUDIO
TITLE "Neurotico"
PERFORMER "Sergio Mendes"
INDEX 00 60:05:37
INDEX 01 60:08:52
00:48
369
Нет комментариев. Ваш будет первым!