Поиск

(World Fusion, Latin Jazz) Ray Barretto & New World Spirit - Taboo - 1994, FLAC (image+.cue), lossless

(World Fusion, Latin Jazz) Ray Barretto & New World Spirit - Taboo - 1994, FLAC (image+.cue), lossless
Ray Barretto & New World Spirit – Taboo
Жанр: World Fusion, Latin Jazz
Год издания: 1994
Издатель (лейбл): Concord Picante
Номер по каталогу: CCD-4601
Аудиокодек: FLAC (*.flac)
Тип рипа: image+.cue
Битрейт аудио: lossless
Продолжительность: 54:23
Rip by bINkI
Наличие сканов в содержимом раздачи: да
Треклист:
01. Taboo (6:23)
02. Bomba-Riquen (4:04)
03. Work Song (6:14)
04. Cancion De'L Yunque (Song For The Rain Forest) (5:25)
05. Guaji-Rita (5:45)
06. 99 Macdougal St. (5:34)
07. Montuno Blue (6:06)
08. Brother Tom (5:04)
09. Lazy Afternoon (4:13)
10. Effendi (5:36)
Personnel:
Ray Barretto - congas, quinto drum
Ray Vega - trumpet, flugelhorn, percussion
Adam Kolker - tenor and soprano saxophones, flute
Hector Martignon - acoustic piano
Jairo Moreno - acoustic and electric bass
Satoshi Takeishi - drums
Rec.: Power Station, NYC, NY, February 26 & 27, 1994.
 
 
Лог создания рипа
Exact Audio Copy V0.99 prebeta 5 from 4. May 2009
EAC extraction logfile from 10. October 2010, 21:02
Ray Barretto & New World Spirit / Taboo
Used drive : HL-DT-STDVD-RAM GH22NP20 Adapter: 1 ID: 1
Read mode : Secure
Utilize accurate stream : Yes
Defeat audio cache : Yes
Make use of C2 pointers : No
Read offset correction : 102
Overread into Lead-In and Lead-Out : No
Fill up missing offset samples with silence : Yes
Delete leading and trailing silent blocks : No
Null samples used in CRC calculations : Yes
Used interface : Native Win32 interface for Win NT & 2000
Used output format : Internal WAV Routines
Sample format : 44.100 Hz; 16 Bit; Stereo
TOC of the extracted CD
Track | Start | Length | Start sector | End sector
---------------------------------------------------------
1 | 0:00.00 | 6:23.13 | 0 | 28737
2 | 6:23.13 | 4:03.42 | 28738 | 47004
3 | 10:26.55 | 6:13.40 | 47005 | 75019
4 | 16:40.20 | 5:24.48 | 75020 | 99367
5 | 22:04.68 | 5:45.22 | 99368 | 125264
6 | 27:50.15 | 5:34.03 | 125265 | 150317
7 | 33:24.18 | 6:05.47 | 150318 | 177739
8 | 39:29.65 | 5:03.73 | 177740 | 200537
9 | 44:33.63 | 4:12.42 | 200538 | 219479
10 | 48:46.30 | 5:36.33 | 219480 | 244712
Range status and errors
Selected range
Filename D:\R\AAAA TO EAC\Ray Barretto & New World Spirit - Taboo\Ray Barretto & New World Spirit - Taboo.wav
Peak level 99.9 %
Range quality 100.0 %
Test CRC 1041AD1F
Copy CRC 1041AD1F
Copy OK
No errors occurred
AccurateRip summary
Track 1 cannot be verified as accurate (confidence 3) [36C51209], AccurateRip returned [D1D93C3D]
Track 2 cannot be verified as accurate (confidence 3) [8E76A834], AccurateRip returned [6922A718]
Track 3 cannot be verified as accurate (confidence 3) [8545CD7F], AccurateRip returned [93D18ED5]
Track 4 cannot be verified as accurate (confidence 3) [18B3DE49], AccurateRip returned [67755F60]
Track 5 cannot be verified as accurate (confidence 3) [C4446548], AccurateRip returned [D9DFAACE]
Track 6 cannot be verified as accurate (confidence 3) [7AF8FE84], AccurateRip returned [1E2CFD62]
Track 7 cannot be verified as accurate (confidence 3) [64B0FE8D], AccurateRip returned [63E7FB6C]
Track 8 cannot be verified as accurate (confidence 3) [F5A2BCCA], AccurateRip returned [DC074E67]
Track 9 cannot be verified as accurate (confidence 3) [64A1ED2B], AccurateRip returned [6FDE3621]
Track 10 cannot be verified as accurate (confidence 2) [BDCB1464], AccurateRip returned [BED50260]
No tracks could be verified as accurate
You may have a different pressing from the one(s) in the database
End of status report
05:59
336
Нет комментариев. Ваш будет первым!