Поиск

(Latin Jazz, World Fusion, Salsa, Post-Bop) John Santos & Machete - Tribute to the Masters - 1999, FLAC (image+.cue), lossless

(Latin Jazz, World Fusion, Salsa, Post-Bop) John Santos & Machete - Tribute to the Masters - 1999, FLAC (image+.cue), lossless
Треклист:
John Santos & Machete - Tribute to the Masters
Жанр: Latin Jazz, World Fusion, Salsa, Post-Bop
Страна-производитель диска: США
Год издания: 1999
Издатель (лейбл): CuBop/Ubiquity
Номер по каталогу: CBCD025
Аудиокодек: FLAC (*.flac)
Тип рипа: image+.cue
Битрейт аудио: lossless
Продолжительность: 61:01
Источник (релизер): dreadbull (hqshare)
Наличие сканов в содержимом раздачи: да
Треклист:
01. Tin Tin Deo /Fuller, Pozo/ 7:27
02. Iyesá /trad./ 2:50
03. So What /Davis/ 5:25
04. Himmo de la Razas /Santos/ 4:49
05. Descarga Iyawó /trad./ 3:44
06. Itim /Calloway/ 6:04
07. Moose the Mooche /Parker/ 4:56
08. Changó /trad./ 1:09
09. Syeeda's Song Flute /Coltrane/ 7:45
10. Matters Not /Santos/ 6:01
11. Foreign Exchange /Wallace/ 5:03
12. Salt Peanuts /Clarke, Gillespie/ 3:27
13. Obalufón /trad./ 2:15
 
Лог создания рипа
EAC extraction logfile from 21. May 2009, 1:33 for CD
John Santos and Machete / Tribute to the Masters
Used drive : PLEXTOR DVDR PX-750A Adapter: 0 ID: 1
Read mode : Secure with NO C2, accurate stream, disable cache
Read offset correction : 102
Overread into Lead-In and Lead-Out : No
Used output format : Internal WAV Routines
44.100 Hz; 16 Bit; Stereo
Other options :
Fill up missing offset samples with silence : Yes
Delete leading and trailing silent blocks : No
Installed external ASPI interface
Range status and errors
Selected range
Filename E:\Donkey Files\John Santos & Machete - Tribute To the Masters (1999, Cubop) [eac-ape-scans]\CDImage.wav
Peak level 100.0 %
Range quality 100.0 %
CRC 932AAD67
Copy OK
No errors occured
End of status report
 
Содержание индексной карты (.CUE)
PERFORMER "John Santos and Machete"
TITLE "Tribute to the Masters"
FILE "John Santos and Machete - Tribute to the Masters.wav" WAVE
TRACK 01 AUDIO
TITLE "Tin Tin Deo"
PERFORMER "John Santos and Machete"
INDEX 01 00:00:00
TRACK 02 AUDIO
TITLE "Iyesa"
PERFORMER "John Santos and Machete"
INDEX 00 07:26:20
INDEX 01 07:27:45
TRACK 03 AUDIO
TITLE "So What"
PERFORMER "John Santos and Machete"
INDEX 00 10:15:62
INDEX 01 10:18:32
TRACK 04 AUDIO
TITLE "Himno de la Razas"
PERFORMER "John Santos and Machete"
INDEX 00 15:42:10
INDEX 01 15:43:70
TRACK 05 AUDIO
TITLE "Descarga Iyawo"
PERFORMER "John Santos and Machete"
INDEX 00 20:30:30
INDEX 01 20:33:35
TRACK 06 AUDIO
TITLE "Itim"
PERFORMER "John Santos and Machete"
INDEX 00 24:15:57
INDEX 01 24:17:57
TRACK 07 AUDIO
TITLE "Moose the Mooch"
PERFORMER "John Santos and Machete"
INDEX 01 30:22:40
TRACK 08 AUDIO
TITLE "Chango"
PERFORMER "John Santos and Machete"
INDEX 00 35:17:37
INDEX 01 35:19:22
TRACK 09 AUDIO
TITLE "Syeeda's Song Flute"
PERFORMER "John Santos and Machete"
INDEX 00 36:27:12
INDEX 01 36:28:67
TRACK 10 AUDIO
TITLE "Matters Not"
PERFORMER "John Santos and Machete"
INDEX 00 44:12:40
INDEX 01 44:14:12
TRACK 11 AUDIO
TITLE "Foreign Exchange"
PERFORMER "John Santos and Machete"
INDEX 00 50:12:37
INDEX 01 50:15:27
TRACK 12 AUDIO
TITLE "Salt Peanuts"
PERFORMER "John Santos and Machete"
INDEX 00 55:16:52
INDEX 01 55:18:30
TRACK 13 AUDIO
TITLE "Obalufon"
PERFORMER "John Santos and Machete"
INDEX 00 58:44:17
INDEX 01 58:46:10
 
Review by Scott Yanow
Most of the selections on this CD, the third from John Santos' Machete Ensemble, are from 1998-1999, but there are also four cuts from 1989-1990. Ranging from Latin bop (including "Tin Tin Deo," "Moose the Mooche," and "Salt Peanuts") and folkloric chant pieces to Latinized versions of Miles Davis' "So What" and John Coltrane's "Syeeda's Song Flute," the music is continually intriguing and inspiring. The key soloists include trombonists Wayne Wallace and Jeff Cressman, Melecio Magdaluyo on various reeds, pianist Rebeca Mauleon, and many percussionists. Recommended.
 
Состав
John Santos - congas (#1-7,9,11,12), guiro (#1,4,6), chékere (#2,7,9-13), claves (#3-7,9), coro (#4), shaker (#5,6), batá (#5), gong (#6), minor percussion (#6,8), vocals (#8,13), Iyá (#8), waterphone (#10) quinto (#12), bell (#12,13), programming (#13);
Jeff Cressman - trombone (#1,4), flugelhorn (#11);
Wayne Wallace - trombone (#2-7,9-13), keyboards & programming (#8,13);
Alfredo "Chocolate" Armenteros - trumpet (#4);
Bill Ortiz - trumpet (#4);
Melecio Magdaluyo - tenor (#1,2,4) & alto (#3,7,9,10) sax, flute (#5,6);
Ron Stallings - soprano (#1,2,5) & tenor (#3,7,9) sax, clarinet (#6,10);
Yosvany Terry - alto sax (#2);
John Calloway - flute (#1,4,7), bell (#2), piano (#3,5,9,10);
David Belove - bass (#1-3,5-12);
Israel "Cachao" López- bass (#4);
Rebeca Mauleón - piano (#1,4), coro (#4), vocals (#8,13);
Paul van Wageningen - drums (#1-3,5-12);
Orestes Vilató - bongos & bell (#1,3), timbales (#2,4,5,9-11).
Взамен ушедшей в архив.
06:00
266
Нет комментариев. Ваш будет первым!