Поиск

(World Fusion, Latin Jazz, Flamenco) La Negra - La Negra - 2005, FLAC (tracks+.cue), lossless

(World Fusion, Latin Jazz, Flamenco) La Negra - La Negra - 2005, FLAC (tracks+.cue), lossless
Треклист:
•La Negra - La Negra•
Жанр: World Fusion, Latin Jazz, Flamenco
Страна-производитель диска: Espana
Год издания: 2005
Издатель (лейбл): Sony BMG
Номер по каталогу: 82876742912
Аудиокодек: FLAC (*.flac)
Тип рипа: tracks+.cue
Битрейт аудио: lossless
Продолжительность: 00:37:58
Источник (релизер): tinuviel
Наличие сканов в содержимом раздачи: да
Треклист:
01. El Mago Piticó [0:41]
02. Inevitable [4:08]
03. Antes [3:25]
04. Amarte Despacito [4:20]
05. Dime Pronto [4:06]
06. Nada [3:26]
07. Siento [3:29]
08. Como A Nadie [3:21]
09. La Seguridad [4:20]
10. Se Fue [3:56]
11. El Mago Piticó (Hidden Track) [2:24]

Personnel:
La Negra - vocal
Yelsy Heredia - bass
Tino Di Geraldo - drums, electric guitar
Javier Limón - electric guitar
Fraskito - flamenco guitar
Niño Josele - flamenco guitar
Piraña - percussion
Ramón Porrina - percussion
José Reinoso - piano, keyboards
Jerry González - trumpet
Antonio Remache - vocals, handclaps
Fraskito - vocals, handclaps
Salomón - vocals, handclaps
 
Лог создания рипа
Exact Audio Copy V1.0 beta 3 from 29. August 2011
EAC extraction logfile from 4. June 2012, 18:25
La Negra / La Negra
Used drive : SONY DVD-ROM DDU1615 Adapter: 2 ID: 1
Read mode : Secure
Utilize accurate stream : Yes
Defeat audio cache : Yes
Make use of C2 pointers : No
Read offset correction : 6
Overread into Lead-In and Lead-Out : No
Fill up missing offset samples with silence : Yes
Delete leading and trailing silent blocks : No
Null samples used in CRC calculations : Yes
Used interface : Installed external ASPI interface
Gap handling : Appended to previous track
Used output format : User Defined Encoder
Selected bitrate : 896 kBit/s
Quality : High
Add ID3 tag : No
Command line compressor : C:\Program Files (x86)\Exact Audio Copy\Flac\flac.exe
Additional command line options : -8 -V -T "ARTIST=%artist%" -T "TITLE=%title%" -T "ALBUM=%albumtitle%" -T "DATE=%year%" -T "TRACKNUMBER=%tracknr%" -T "TOTALTRACKS=%numtracks%" -T "GENRE=%genre%" -T "ALBUMARTIST=%albumartist%" -T "ALBUM ARTIST=%albumartist%" -T "COMMENT=EAC Secure Mode, Test & Copy, AccurateRip, FLAC -8" %source%
TOC of the extracted CD
Track | Start | Length | Start sector | End sector
---------------------------------------------------------
1 | 0:00.00 | 0:41.29 | 0 | 3103
2 | 0:41.29 | 4:09.48 | 3104 | 21826
3 | 4:51.02 | 3:26.69 | 21827 | 37345
4 | 8:17.71 | 4:22.43 | 37346 | 57038
5 | 12:40.39 | 4:08.21 | 57039 | 75659
6 | 16:48.60 | 3:29.05 | 75660 | 91339
7 | 20:17.65 | 3:32.05 | 91340 | 107244
8 | 23:49.70 | 3:22.69 | 107245 | 122463
9 | 27:12.64 | 4:22.34 | 122464 | 142147
10 | 31:35.23 | 3:58.65 | 142148 | 160062
11 | 35:34.13 | 2:24.07 | 160063 | 170869
Track 1
Filename D:\Rips\01 - El mago Pitico.wav
Pre-gap length 0:00:02.00
Peak level 88.0 %
Extraction speed 5.1 X
Track quality 100.0 %
Test CRC E39B248E
Copy CRC E39B248E
Accurately ripped (confidence 4) [87E3E50B] (AR v1)
Copy OK
Track 2
Filename D:\Rips\02 - Inevitable.wav
Peak level 100.0 %
Extraction speed 7.2 X
Track quality 99.9 %
Test CRC 9F0AE5AC
Copy CRC 9F0AE5AC
Accurately ripped (confidence 4) [1FEEC522] (AR v1)
Copy OK
Track 3
Filename D:\Rips\03 - Antes.wav
Pre-gap length 0:00:00.65
Peak level 100.0 %
Extraction speed 8.2 X
Track quality 100.0 %
Test CRC 05EAA250
Copy CRC 05EAA250
Accurately ripped (confidence 4) [E82C6063] (AR v1)
Copy OK
Track 4
Filename D:\Rips\04 - Amarte despacito.wav
Pre-gap length 0:00:01.02
Peak level 100.0 %
Extraction speed 8.3 X
Track quality 99.9 %
Test CRC B44A5CE2
Copy CRC B44A5CE2
Accurately ripped (confidence 4) [AF4D2CE4] (AR v1)
Copy OK
Track 5
Filename D:\Rips\05 - Dime pronto.wav
Pre-gap length 0:00:01.63
Peak level 99.1 %
Extraction speed 9.7 X
Track quality 100.0 %
Test CRC 4836E440
Copy CRC 4836E440
Accurately ripped (confidence 4) [36BBC766] (AR v1)
Copy OK
Track 6
Filename D:\Rips\06 - Nada.wav
Pre-gap length 0:00:02.17
Peak level 98.4 %
Extraction speed 10.0 X
Track quality 100.0 %
Test CRC 944A701E
Copy CRC 944A701E
Accurately ripped (confidence 4) [40D590C3] (AR v1)
Copy OK
Track 7
Filename D:\Rips\07 - Siento.wav
Pre-gap length 0:00:02.09
Peak level 100.0 %
Extraction speed 10.2 X
Track quality 100.0 %
Test CRC 51A6C296
Copy CRC 51A6C296
Accurately ripped (confidence 4) [072D7759] (AR v1)
Copy OK
Track 8
Filename D:\Rips\08 - Como a nadie.wav
Pre-gap length 0:00:02.08
Peak level 100.0 %
Extraction speed 10.6 X
Track quality 100.0 %
Test CRC A8583CA1
Copy CRC A8583CA1
Accurately ripped (confidence 4) [3D4D64F2] (AR v1)
Copy OK
Track 9
Filename D:\Rips\09 - La seguridad.wav
Pre-gap length 0:00:01.72
Peak level 99.0 %
Extraction speed 11.3 X
Track quality 100.0 %
Test CRC 43FDDDA1
Copy CRC 43FDDDA1
Accurately ripped (confidence 4) [0BE8FE2B] (AR v1)
Copy OK
Track 10
Filename D:\Rips\10 - Se fue.wav
Pre-gap length 0:00:02.08
Peak level 100.0 %
Extraction speed 11.8 X
Track quality 100.0 %
Test CRC 9A253B04
Copy CRC 9A253B04
Accurately ripped (confidence 4) [D31AAD7D] (AR v1)
Copy OK
Track 11
Filename D:\Rips\11 - El mago Pitico.wav
Pre-gap length 0:00:02.26
Peak level 89.5 %
Extraction speed 9.2 X
Track quality 99.9 %
Test CRC D8151F77
Copy CRC D8151F77
Accurately ripped (confidence 4) [5C85C026] (AR v1)
Copy OK
All tracks accurately ripped
No errors occurred
End of status report
==== Log checksum DB4B0DADADA0BD9B77F38A85C80A91E62E716BF2D64F5F4D2837EEB672E3DC73 ====
 
Содержание индексной карты (.CUE)
REM GENRE Flamenco/Fusion
REM DATE 2005
REM DISCID 8708E60B
REM COMMENT "ExactAudioCopy v1.0b3"
PERFORMER "La Negra"
TITLE "La Negra"
FILE "01 - El mago Pitico.wav" WAVE
TRACK 01 AUDIO
TITLE "El mago Pitico"
PERFORMER "La Negra"
FLAGS DCP
INDEX 01 00:00:00
FILE "02 - Inevitable.wav" WAVE
TRACK 02 AUDIO
TITLE "Inevitable"
PERFORMER "La Negra"
FLAGS DCP
INDEX 01 00:00:00
TRACK 03 AUDIO
TITLE "Antes"
PERFORMER "La Negra"
FLAGS DCP
INDEX 00 04:08:58
FILE "03 - Antes.wav" WAVE
INDEX 01 00:00:00
TRACK 04 AUDIO
TITLE "Amarte despacito"
PERFORMER "La Negra"
FLAGS DCP
INDEX 00 03:25:67
FILE "04 - Amarte despacito.wav" WAVE
INDEX 01 00:00:00
TRACK 05 AUDIO
TITLE "Dime pronto"
PERFORMER "La Negra"
FLAGS DCP
INDEX 00 04:20:55
FILE "05 - Dime pronto.wav" WAVE
INDEX 01 00:00:00
TRACK 06 AUDIO
TITLE "Nada"
PERFORMER "La Negra"
FLAGS DCP
INDEX 00 04:06:04
FILE "06 - Nada.wav" WAVE
INDEX 01 00:00:00
TRACK 07 AUDIO
TITLE "Siento"
PERFORMER "La Negra"
FLAGS DCP
INDEX 00 03:26:71
FILE "07 - Siento.wav" WAVE
INDEX 01 00:00:00
TRACK 08 AUDIO
TITLE "Como a nadie"
PERFORMER "La Negra"
FLAGS DCP
INDEX 00 03:29:72
FILE "08 - Como a nadie.wav" WAVE
INDEX 01 00:00:00
TRACK 09 AUDIO
TITLE "La seguridad"
PERFORMER "La Negra"
FLAGS DCP
INDEX 00 03:20:72
FILE "09 - La seguridad.wav" WAVE
INDEX 01 00:00:00
TRACK 10 AUDIO
TITLE "Se fue"
PERFORMER "La Negra"
FLAGS DCP
INDEX 00 04:20:26
FILE "10 - Se fue.wav" WAVE
INDEX 01 00:00:00
TRACK 11 AUDIO
TITLE "El mago Pitico"
PERFORMER "La Negra"
FLAGS DCP
INDEX 00 03:56:39
FILE "11 - El mago Pitico.wav" WAVE
INDEX 01 00:00:00
08:31
281
Нет комментариев. Ваш будет первым!