Поиск

(Latin Jazz, World Fusion, Free Jazz) Gato Barbieri - Latino America (1973-1974) (2CD) - 1997, FLAC (tracks+.cue), lossless

(Latin Jazz, World Fusion, Free Jazz) Gato Barbieri - Latino America (1973-1974) (2CD) - 1997, FLAC (tracks+.cue), lossless
Треклист:
Gato Barbieri - Latino America
Жанр: Latin Jazz, World Fusion, Free Jazz
Страна-производитель диска: EU
Год издания: 1997
Издатель (лейбл): Impulse!/MCA/GRP
Номер по каталогу: 052236-2 / IMP-22362
Аудиокодек: FLAC (*.flac)
Тип рипа: tracks+.cue
Битрейт аудио: lossless
Продолжительность: CD1 - 61:16; CD2 - 65:20
Источник (релизер): raket2ruckus (what)
Наличие сканов в содержимом раздачи: да
Треклист:
CD1:
01. Encuentros (12:29)
02. India (8:56)
03. La China Leoncia Arreo La Correntinada Trajo Entre La Muchachada La Flor De La Juvuntud (13:39)
04. Nunca Mas (complete version) (7:38)
05. La China Leoncia Arreo La Correntinada Trajo Entre La Muchachada La Flor De La Juvuntud (alternate take) (2:35)
06. Nunca Mas (alternate take) (10:21)
07. Gato Gato (unreleased) (3:09)
08. To Be Continued (2:29)
CD2:
01. Encontros (complete version) (12:17)
02. Latino America (5:28)
03. Marissea (complete version) (8:12)
04. Para Nosotros (complete version) (9:55)
05. Juana Azurduy (11:18)
06. Latino America (alternate take) (9:41)
07. Mate (unreleased) (8:29)
 
Техническая информация
 
Лог создания рипа CD1
Exact Audio Copy V0.99 prebeta 5 from 4. May 2009
EAC extraction logfile from 25. January 2010, 11:58
Gato Barbieri / Latino America
Used drive : SONY CDRWDVD CRX310S Adapter: 1 ID: 0
Read mode : Secure
Utilize accurate stream : Yes
Defeat audio cache : Yes
Make use of C2 pointers : No
Read offset correction : 6
Overread into Lead-In and Lead-Out : No
Fill up missing offset samples with silence : Yes
Delete leading and trailing silent blocks : No
Null samples used in CRC calculations : Yes
Used interface : Native Win32 interface for Win NT & 2000
Gap handling : Appended to previous track
Used output format : User Defined Encoder
Selected bitrate : 768 kBit/s
Quality : High
Add ID3 tag : No
Command line compressor : C:\Program Files\Exact Audio Copy\FLAC\FLAC.EXE
Additional command line options : -V -8 -T "artist=%a" -T "title=%t" -T "album=%g" -T "date=%y" -T "tracknumber=%n" -T "genre=%m" %s
TOC of the extracted CD
Track | Start | Length | Start sector | End sector
---------------------------------------------------------
1 | 0:00.00 | 12:29.43 | 0 | 56217
2 | 12:29.43 | 8:56.50 | 56218 | 96467
3 | 21:26.18 | 13:39.57 | 96468 | 157949
4 | 35:06.00 | 7:38.73 | 157950 | 192372
5 | 42:44.73 | 2:35.02 | 192373 | 203999
6 | 45:20.00 | 10:21.13 | 204000 | 250587
7 | 55:41.13 | 3:09.25 | 250588 | 264787
8 | 58:50.38 | 2:29.57 | 264788 | 276019
Track 1
Filename C:\EAC\01 - Encuentros.wav
Pre-gap length 0:00:02.00
Peak level 73.2 %
Track quality 100.0 %
Test CRC 0FB3CC13
Copy CRC 0FB3CC13
Cannot be verified as accurate (confidence 3) [2F590B11], AccurateRip returned [744B323C]
Copy OK
Track 2
Filename C:\EAC\02 - India.wav
Peak level 74.4 %
Track quality 100.0 %
Test CRC 8D85DC85
Copy CRC 8D85DC85
Cannot be verified as accurate (confidence 3) [67470228], AccurateRip returned [F7B1A3C4]
Copy OK
Track 3
Filename C:\EAC\03 - La China Leoncia Arreo La Correntinada Trajo Entre La Muchachada La Flor De La Juvuntud.wav
Peak level 100.0 %
Track quality 100.0 %
Test CRC 5A482EDA
Copy CRC 5A482EDA
Cannot be verified as accurate (confidence 3) [1C0BD37C], AccurateRip returned [AAE5B150]
Copy OK
Track 4
Filename C:\EAC\04 - Nunca Mas[previously unreleased in this complete form].wav
Peak level 81.7 %
Track quality 100.0 %
Test CRC 2E43F90F
Copy CRC 2E43F90F
Cannot be verified as accurate (confidence 3) [FC14A6A9], AccurateRip returned [D6C6DD9C]
Copy OK
Track 5
Filename C:\EAC\05 - La China Leoncia Arreo La Correntinada Trajo Entre La Muchachada La Flor De La Juvuntud[previously unreleased].wav
Peak level 100.0 %
Track quality 100.0 %
Test CRC 3DB40133
Copy CRC 3DB40133
Cannot be verified as accurate (confidence 3) [D69D480A], AccurateRip returned [CB8A0E32]
Copy OK
Track 6
Filename C:\EAC\06 - Nunca Mas[previously unreleased].wav
Peak level 100.0 %
Track quality 100.0 %
Test CRC C829968C
Copy CRC C829968C
Cannot be verified as accurate (confidence 3) [05296302], AccurateRip returned [A95739B9]
Copy OK
Track 7
Filename C:\EAC\07 - Gato Gato[previously unreleased].wav
Peak level 100.0 %
Track quality 100.0 %
Test CRC 543CE973
Copy CRC 543CE973
Cannot be verified as accurate (confidence 3) [221B9F35], AccurateRip returned [38F05FD3]
Copy OK
Track 8
Filename C:\EAC\08 - To Be Continued.wav
Peak level 100.0 %
Track quality 99.9 %
Test CRC 037784AB
Copy CRC 037784AB
Cannot be verified as accurate (confidence 3) [45C79EA9], AccurateRip returned [3276868F]
Copy OK
No tracks could be verified as accurate
You may have a different pressing from the one(s) in the database
No errors occurred
End of status report
 
Лог создания рипа CD2
Exact Audio Copy V0.99 prebeta 5 from 4. May 2009
EAC extraction logfile from 25. January 2010, 12:53
Gato Barbieri / Latino America
Used drive : SONY CDRWDVD CRX310S Adapter: 1 ID: 0
Read mode : Secure
Utilize accurate stream : Yes
Defeat audio cache : Yes
Make use of C2 pointers : No
Read offset correction : 6
Overread into Lead-In and Lead-Out : No
Fill up missing offset samples with silence : Yes
Delete leading and trailing silent blocks : No
Null samples used in CRC calculations : Yes
Used interface : Native Win32 interface for Win NT & 2000
Gap handling : Appended to previous track
Used output format : User Defined Encoder
Selected bitrate : 768 kBit/s
Quality : High
Add ID3 tag : No
Command line compressor : C:\Program Files\Exact Audio Copy\FLAC\FLAC.EXE
Additional command line options : -V -8 -T "artist=%a" -T "title=%t" -T "album=%g" -T "date=%y" -T "tracknumber=%n" -T "genre=%m" %s
TOC of the extracted CD
Track | Start | Length | Start sector | End sector
---------------------------------------------------------
1 | 0:00.00 | 12:17.25 | 0 | 55299
2 | 12:17.25 | 5:28.25 | 55300 | 79924
3 | 17:45.50 | 8:12.28 | 79925 | 116852
4 | 25:58.03 | 9:55.22 | 116853 | 161499
5 | 35:53.25 | 11:18.53 | 161500 | 212402
6 | 47:12.03 | 9:41.25 | 212403 | 256002
7 | 56:53.28 | 8:29.35 | 256003 | 294212
Track 1
Filename C:\EAC\01 - Encontros[previously unreleased in this complete form].wav
Pre-gap length 0:00:02.00
Peak level 80.4 %
Track quality 100.0 %
Test CRC 4413103F
Copy CRC 4413103F
Accurately ripped (confidence 2) [EF56366D]
Copy OK
Track 2
Filename C:\EAC\02 - Latino America.wav
Peak level 97.2 %
Track quality 100.0 %
Test CRC FD2458D6
Copy CRC FD2458D6
Accurately ripped (confidence 2) [148409E3]
Copy OK
Track 3
Filename C:\EAC\03 - Marissea[previously unreleased in this complete form].wav
Peak level 100.0 %
Track quality 100.0 %
Test CRC 21FF2AAE
Copy CRC 21FF2AAE
Accurately ripped (confidence 2) [92ABD0F0]
Copy OK
Track 4
Filename C:\EAC\04 - Para Nosotros[previously unreleased in this complete form].wav
Peak level 98.3 %
Track quality 100.0 %
Test CRC F83452F7
Copy CRC F83452F7
Accurately ripped (confidence 2) [BCC62460]
Copy OK
Track 5
Filename C:\EAC\05 - Juana Azurduy (Ariel Ramirez - F. Luna).wav
Peak level 78.4 %
Track quality 99.9 %
Test CRC 0B0A39AD
Copy CRC 0B0A39AD
Accurately ripped (confidence 2) [01948717]
Copy OK
Track 6
Filename C:\EAC\06 - Latino America[previously unreleased].wav
Peak level 78.1 %
Track quality 100.0 %
Test CRC 93994BD8
Copy CRC 93994BD8
Accurately ripped (confidence 2) [99708418]
Copy OK
Track 7
Filename C:\EAC\07 - Mate[previously unreleased].wav
Peak level 100.0 %
Track quality 100.0 %
Test CRC 33DBCA1E
Copy CRC 33DBCA1E
Track not present in AccurateRip database
Copy OK
6 track(s) accurately ripped
1 track(s) not present in the AccurateRip database
Some tracks could not be verified as accurate
No errors occurred
End of status report
 
Содержание индексной карты (.CUE) CD1
REM GENRE "Latin Jazz"
REM DATE 1997
REM DISCID 670E6008
REM COMMENT "ExactAudioCopy v0.99pb5"
PERFORMER "Gato Barbieri"
TITLE "Latino America CD1"
FILE "01 - Encuentros.wav" WAVE
TRACK 01 AUDIO
TITLE "Encuentros"
PERFORMER "Gato Barbieri"
INDEX 01 00:00:00
FILE "02 - India.wav" WAVE
TRACK 02 AUDIO
TITLE "India"
PERFORMER "Gato Barbieri"
INDEX 01 00:00:00
FILE "03 - La China Leoncia Arreo....wav" WAVE
TRACK 03 AUDIO
TITLE "La China Leoncia Arreo La Correntinada Trajo Entre La Muchachada La Flor De La Juvuntud"
PERFORMER "Gato Barbieri"
INDEX 01 00:00:00
FILE "04 - Nunca Mas.wav" WAVE
TRACK 04 AUDIO
TITLE "Nunca Mas"
PERFORMER "Gato Barbieri"
INDEX 01 00:00:00
FILE "05 - La China Leoncia Arreo....wav" WAVE
TRACK 05 AUDIO
TITLE "La China Leoncia Arreo La Correntinada Trajo Entre La Muchachada La Flor De La Juvuntud"
PERFORMER "Gato Barbieri"
INDEX 01 00:00:00
FILE "06 - Nunca Mas.wav" WAVE
TRACK 06 AUDIO
TITLE "Nunca Mas"
PERFORMER "Gato Barbieri"
INDEX 01 00:00:00
FILE "07 - Gato Gato.wav" WAVE
TRACK 07 AUDIO
TITLE "Gato Gato"
PERFORMER "Gato Barbieri"
INDEX 01 00:00:00
FILE "08 - To Be Continued.wav" WAVE
TRACK 08 AUDIO
TITLE "To Be Continued"
PERFORMER "Gato Barbieri"
INDEX 01 00:00:00
 
Содержание индексной карты (.CUE) CD2
REM GENRE "Latin Jazz"
REM DATE 1997
REM DISCID 5A0F5207
REM COMMENT "ExactAudioCopy v0.99pb5"
PERFORMER "Gato Barbieri"
TITLE "Latino America CD2"
FILE "01 - Encontros.wav" WAVE
TRACK 01 AUDIO
TITLE "Encontros"
PERFORMER "Gato Barbieri"
INDEX 01 00:00:00
FILE "02 - Latino America.wav" WAVE
TRACK 02 AUDIO
TITLE "Latino America"
PERFORMER "Gato Barbieri"
INDEX 01 00:00:00
FILE "03 - Marissea.wav" WAVE
TRACK 03 AUDIO
TITLE "Marissea"
PERFORMER "Gato Barbieri"
INDEX 01 00:00:00
FILE "04 - Para Nosotros.wav" WAVE
TRACK 04 AUDIO
TITLE "Para Nosotros"
PERFORMER "Gato Barbieri"
INDEX 01 00:00:00
FILE "05 - Juana Azurduy.wav" WAVE
TRACK 05 AUDIO
TITLE "Juana Azurduy"
PERFORMER "Gato Barbieri"
INDEX 01 00:00:00
FILE "06 - Latino America.wav" WAVE
TRACK 06 AUDIO
TITLE "Latino America"
PERFORMER "Gato Barbieri"
INDEX 01 00:00:00
FILE "07 - Mate.wav" WAVE
TRACK 07 AUDIO
TITLE "Mate"
PERFORMER "Gato Barbieri"
INDEX 01 00:00:00
 
Отчет CUETools CD1
[CUETools log; Date: 15.12.2012 0:50:11; Version: 2.1.4]
[CTDB TOCID: Y4yS9MJEJzkbMQL2xD78qxYuTLM-] found.
Track | CTDB Status
1 | (1/1) Accurately ripped
2 | (1/1) Accurately ripped
3 | (1/1) Accurately ripped
4 | (1/1) Accurately ripped
5 | (1/1) Accurately ripped
6 | (1/1) Accurately ripped
7 | (1/1) Accurately ripped
8 | (1/1) Accurately ripped
[AccurateRip ID: 0016dd25-00921eaa-670e6008] found.
Track [ CRC | V2 ] Status
01 [2f590b11|9ce3bc94] (0+0/8) No match
02 [67470228|2deba987] (0+0/8) No match
03 [1c0bd37c|c90bfe0d] (0+0/8) No match
04 [fc14a6a9|995cc905] (0+0/8) No match
05 [d69d480a|edee3703] (0+0/6) No match
06 [05296302|3a3ad435] (0+0/7) No match
07 [221b9f35|4f9ef6ac] (0+0/9) No match
08 [45c79ea9|6c924503] (0+0/7) No match
Offsetted by -186:
01 [744b323c] (8/8) Accurately ripped
02 [f7b1a3c4] (8/8) Accurately ripped
03 [aae5b150] (8/8) Accurately ripped
04 [d6c6dd9c] (8/8) Accurately ripped
05 [cb8a0e32] (6/6) Accurately ripped
06 [a95739b9] (7/7) Accurately ripped
07 [38f05fd3] (9/9) Accurately ripped
08 [3276868f] (7/7) Accurately ripped
Track Peak [ CRC32 ] [W/O NULL] [ LOG ]
-- 100,0 [4743D386] [4596BD02]
01 73,2 [0FB3CC13] [1120BE4B] CRC32
02 74,4 [8D85DC85] [421A2114] CRC32
03 100,0 [5A482EDA] [A0A4EC9F] CRC32
04 81,7 [2E43F90F] [A96C6C82] CRC32
05 100,0 [3DB40133] [46C16ABD] CRC32
06 100,0 [C829968C] [F14E26BC] CRC32
07 100,0 [543CE973] [AF7996DC] CRC32
08 100,0 [037784AB] [B3802364] CRC32
 
Отчет CUETools CD2
[CUETools log; Date: 15.12.2012 0:50:30; Version: 2.1.4]
[CTDB TOCID: KyR6cDcWoRKNy1j4.B7.mZmN.7A-] found.
Track | CTDB Status
1 | (1/1) Accurately ripped
2 | (1/1) Accurately ripped
3 | (1/1) Accurately ripped
4 | (1/1) Accurately ripped
5 | (1/1) Accurately ripped
6 | (1/1) Accurately ripped
7 | (1/1) Accurately ripped
[AccurateRip ID: 0011f285-006b8137-5a0f5207] found.
Track [ CRC | V2 ] Status
01 [ef56366d|1c4a1d4c] (09+00/09) Accurately ripped
02 [148409e3|8f33aaec] (10+00/10) Accurately ripped
03 [92abd0f0|32aff8e6] (10+00/10) Accurately ripped
04 [bcc62460|1b45cc89] (10+00/10) Accurately ripped
05 [01948717|788a66e1] (09+00/09) Accurately ripped
06 [99708418|0715c797] (08+00/08) Accurately ripped
07 [376f83b6|50e83a6a] (07+00/07) Accurately ripped
Track Peak [ CRC32 ] [W/O NULL] [ LOG ]
-- 100,0 [7C061B6D] [439326BC]
01 80,4 [4413103F] [9ACB1BAB] CRC32
02 97,2 [FD2458D6] [9F134775] CRC32
03 100,0 [21FF2AAE] [73630068] CRC32
04 98,3 [F83452F7] [76569BB9] CRC32
05 78,4 [0B0A39AD] [EF38132C] CRC32
06 78,1 [93994BD8] [245137F4] CRC32
07 100,0 [33DBCA1E] [51D545CE] CRC32
 
Review by Leo Stanley
Released in the wake of the commercial success of his comeback, Que Pasa, Latino America is a double-disc that combines Gato Barbieri's first two albums for a major label. Both records were recorded in the early '70s, largely in Brazil and Argentina, and they have been remastered by Ed Michel, the original producer of these sessions. In addition to all of the material from the two albums -- including four tracks that have been restored to thier full extended length -- Latino America contains five previously unreleased tracks. Barbieri's smooth fusion of jazz and South American rhythms have rarely sounded as fresh or alive as they do here, making it one of the more vital collections in his catalog.
 
Состав
Gato Barbieri (Tenor Saxophone)
Raul Mercado (Quena) - 1-3,5,6 10,12,13,15
Amadeo Monges (Indian Harp) - 1-3,5,6, 10,12,13,15
Ricardo Lew (Electric Guitar) - 1,3,5,6,10,12,13,15
Quelo Palacios (Classical Guitar) - 1-3,5,6,10,12,13,15
Isoca Fumero (Charango) - 1,3,13
Adalberto Cevasco (Bass Guitar) - 1-6,10,12,13,15
Pocho Lapuble (Drums) 1,3, 13
Domingo Cura (Indian Drums) - 1-3,5,6,10,12,13,15
Antonio Pantoja (Quena, Anapa, Erke, Siku) - 1-3,5,6,10,12,13,15
Jorge Padin (Percussion) - 1,3, 13
El Zurdo Roizner (Drums and Percussion) - 1-3,5,6,10,12,13,15
Osvaldo Bellingieri (Piano) - 4
Dino Saluzzi (Bandoneon) - 4
Lee Ritenour (Guitar) - 7
John Pisano (Classical Guitar) - 7
Jim Hughart (Bass) - 7
Bob Zimitti (Drums) - 7
Mayuto Correa (Percussion) - 7
Helio Delmiro (Guitar) - 8,9,11,14
Daudeth De Azevado (Cavaco) - 8,9,11,14
Novelli (Bass Guitar) - 8,9,11,14
Paulinho Braga (Drums) - 8,9,11,14
Tracks 1-4,13: Recorded at Music Hall, Buenos Aires, 1973
Tracks 5-6,10,12,15: Recorded at The Village Recorder, Los Angeles, 1973
Tracks 8,14: Recorded at Odeon, Rio de Janeiro, 1973
Tracks 7,9,11: Recorded at The Village Recorder, Los Angeles, 1974
На замену http://rutracker.org/forum/viewtopic.php?t=342007
09:30
465
Нет комментариев. Ваш будет первым!