Поиск

(World Fusion, Latin Jazz, Flamenco) [CD] Chano Dominguez - Chano - 1993, FLAC (tracks+.cue), lossless

(World Fusion, Latin Jazz, Flamenco) [CD] Chano Dominguez - Chano - 1993, FLAC (tracks+.cue), lossless
Chano Dominguez - Chano Жанр: World Fusion, Latin Jazz, Flamenco
Носитель: CD
Год издания: 1993
Издатель (лейбл): Nuba Records
Номер по каталогу: NUBA 7756
Аудиокодек: FLAC (*.flac)
Тип рипа: tracks+.cue
Битрейт аудио: lossless
Продолжительность: 60:27
Rip by jlgt
Наличие сканов в содержимом раздачи: да
Треклист:
01. Refrito (5:09)
02. Naima (7:39)
03. Choricli Jul. (3:51)
04. Pa mi Nino ( Parte 1 ) (1:48)
05. Pa mi Nino ( Parte 2 ) (3:12)
06. El Toro y La Luna (7:37)
07. Mr. C. I. (6:02)
08. Marea Alta (5:14)
09. Well You Needn't (4:17)
10. La Tarara (7:24)
11. El Estero (4:10)
12. Time Remembered (4:04)
 
 
Об исполнителе (группе)
Chano Domínguez is one of the most celebrated of jazz pianists and composers. His singular work is defined by his flamenco origins.
In more than 40 years of his career, he has dazzled all kinds of audiences, including other musicians spanning both worlds of jazz and flamenco. His interpretive talents are highly sought after for his authentic integration of both jazz and flamenco traditions, working with an extensive range of colleagues such as Paco de Lucía, Enrique Morente, Jorge Pardo, Carles Benavent, Martirio, Wynton Marsalis, Paquito d'Rivera, Jack DeJohnette, Herbie Hancock, Jerry Gonzalez, Gonzalo Rubalcaba, Michel Camino, Chucho Valdés, Joe Lovano, and George Mraz, among others.
Chano has achieved an unusual integration between the rhythms and languages of jazz and flamenco, creating a unique style that places him among the top musicians practicing this artform. Internationally acclaimed, he has influenced and changed the history of flamenco-jazz.
His music has been played by many different ensembles and orchestras such as the Lincoln Center Jazz Orchestra, WDR Cologne Big Band, Orquesta Nacional de España, Orquesta Nacional de Latvia, Orquesta de Cámara del Vallés, and the Orquesta Nacional de Costa Rica.
In 2016 he's been nominated for his fourth Grammy, this one a Latin Grammy for his latest release "Bendito". This recording features Chano as producer, composer and pianist with his preferred 'cantaor' (flamenco singer) Blas Cordoba aka "El Kejio".
Chano is currently living in New York. He will have a new solo release coming out in January 2017 on Sunnyside Records. Chano is also a seasoned educator, available for master classes, workshops and residencies. He has previously taught at Taller de Músics in Barcelona, The Music Conservatory of Bogotá, the Julliard School in New York and at the School of Music at the University of Washington.

 
Лог создания рипа
Exact Audio Copy V1.0 beta 3 from 29. August 2011
EAC extraction logfile from 11. March 2017, 21:08
Chano Dominguez / Chano
Used drive : ASUS DRW-24F1ST a Adapter: 0 ID: 0
Read mode : Secure
Utilize accurate stream : Yes
Defeat audio cache : Yes
Make use of C2 pointers : No
Read offset correction : 6
Overread into Lead-In and Lead-Out : No
Fill up missing offset samples with silence : Yes
Delete leading and trailing silent blocks : No
Null samples used in CRC calculations : Yes
Used interface : Native Win32 interface for Win NT & 2000
Gap handling : Appended to previous track
Used output format : User Defined Encoder
Selected bitrate : 128 kBit/s
Quality : High
Add ID3 tag : No
Command line compressor : C:\Program Files (x86)\Exact Audio Copy\FLAC\FLAC.EXE
Additional command line options : -8 -V -T "ARTIST=%artist%" -T "TITLE=%title%" -T "ALBUM=%albumtitle%" -T "DATE=%year%" -T "TRACKNUMBER=%tracknr%" -T "TOTALTRACKS=%numtracks%" -T "GENRE=%genre%" -T "ALBUMARTIST=%albumartist%" -T "ALBUM ARTIST=%albumartist%" -T "COMMENT=EAC Secure Mode, Test & Copy, AccurateRip, FLAC -8" %source%
TOC of the extracted CD
Track | Start | Length | Start sector | End sector
---------------------------------------------------------
1 | 0:00.38 | 5:09.00 | 38 | 23212
2 | 5:09.38 | 7:39.00 | 23213 | 57637
3 | 12:48.38 | 3:51.00 | 57638 | 74962
4 | 16:39.38 | 1:48.00 | 74963 | 83062
5 | 18:27.38 | 3:12.00 | 83063 | 97462
6 | 21:39.38 | 7:37.00 | 97463 | 131737
7 | 29:16.38 | 6:02.00 | 131738 | 158887
8 | 35:18.38 | 5:14.00 | 158888 | 182437
9 | 40:32.38 | 4:17.00 | 182438 | 201712
10 | 44:49.38 | 7:24.00 | 201713 | 235012
11 | 52:13.38 | 4:10.00 | 235013 | 253762
12 | 56:23.38 | 4:04.00 | 253763 | 272062
Track 1
Filename K:\EAC\01 - Refrito.wav
Pre-gap length 0:00:02.38
Peak level 87.2 %
Extraction speed 2.1 X
Track quality 100.0 %
Test CRC 561D97FA
Copy CRC 561D97FA
Accurately ripped (confidence 3) [BC9E8B16] (AR v2)
Copy OK
Track 2
Filename K:\EAC\02 - Naima.wav
Peak level 88.7 %
Extraction speed 2.2 X
Track quality 100.0 %
Test CRC BA84E1E8
Copy CRC BA84E1E8
Accurately ripped (confidence 3) [F195E294] (AR v2)
Copy OK
Track 3
Filename K:\EAC\03 - Choricli Jul..wav
Peak level 82.9 %
Extraction speed 2.0 X
Track quality 100.0 %
Test CRC 83B1BE92
Copy CRC 83B1BE92
Accurately ripped (confidence 3) [5F696C9B] (AR v2)
Copy OK
Track 4
Filename K:\EAC\04 - Pa mi Nino ( Parte 1 ).wav
Peak level 82.0 %
Extraction speed 1.7 X
Track quality 100.0 %
Test CRC 8378A37C
Copy CRC 8378A37C
Accurately ripped (confidence 3) [B2447A6D] (AR v2)
Copy OK
Track 5
Filename K:\EAC\05 - Pa mi Nino ( Parte 2 ).wav
Peak level 87.0 %
Extraction speed 2.0 X
Track quality 100.0 %
Test CRC 0BEDD7B4
Copy CRC 0BEDD7B4
Accurately ripped (confidence 3) [957E27A1] (AR v2)
Copy OK
Track 6
Filename K:\EAC\06 - El Toro y La Luna.wav
Peak level 83.6 %
Extraction speed 2.2 X
Track quality 100.0 %
Test CRC 5A5175F6
Copy CRC 5A5175F6
Accurately ripped (confidence 3) [897AA86B] (AR v2)
Copy OK
Track 7
Filename K:\EAC\07 - Mr. C. I..wav
Peak level 85.0 %
Extraction speed 2.2 X
Track quality 100.0 %
Test CRC 87BE3891
Copy CRC 87BE3891
Accurately ripped (confidence 3) [C67EEDDE] (AR v2)
Copy OK
Track 8
Filename K:\EAC\08 - Marea Alta.wav
Peak level 88.2 %
Extraction speed 2.1 X
Track quality 100.0 %
Test CRC 5CBE058A
Copy CRC 5CBE058A
Accurately ripped (confidence 3) [F1ACEB85] (AR v2)
Copy OK
Track 9
Filename K:\EAC\09 - Well You Needn't.wav
Peak level 85.4 %
Extraction speed 2.1 X
Track quality 100.0 %
Test CRC 558183F0
Copy CRC 558183F0
Accurately ripped (confidence 3) [470245D6] (AR v2)
Copy OK
Track 10
Filename K:\EAC\10 - La Tarara.wav
Peak level 93.2 %
Extraction speed 2.2 X
Track quality 100.0 %
Test CRC 9F888C71
Copy CRC 9F888C71
Accurately ripped (confidence 3) [38B9D377] (AR v2)
Copy OK
Track 11
Filename K:\EAC\11 - El Estero.wav
Peak level 91.6 %
Extraction speed 1.8 X
Track quality 99.9 %
Test CRC C3405EC7
Copy CRC C3405EC7
Accurately ripped (confidence 3) [09D9F123] (AR v2)
Copy OK
Track 12
Filename K:\EAC\12 - Time Remembered.wav
Peak level 86.1 %
Extraction speed 1.8 X
Track quality 99.9 %
Test CRC 56755888
Copy CRC 56755888
Accurately ripped (confidence 2) [4D94A31A] (AR v2)
Copy OK
All tracks accurately ripped
No errors occurred
End of status report
==== Log checksum 11818FF30B6989F8872C7552CF3B2513EBC04D7BFB9B78F4274F4AC411A1D2AA ====
 
Содержание индексной карты (.CUE)
REM GENRE Jazz
REM DATE 1993
REM DISCID 7F0E2B0C
REM COMMENT "ExactAudioCopy v1.0b3"
PERFORMER "Chano Dominguez"
TITLE "Chano"
FILE "01 - Refrito.wav" WAVE
TRACK 01 AUDIO
TITLE "Refrito"
PERFORMER "Chano Dominguez"
PREGAP 00:00:38
INDEX 01 00:00:00
FILE "02 - Naima.wav" WAVE
TRACK 02 AUDIO
TITLE "Naima"
PERFORMER "Chano Dominguez"
INDEX 01 00:00:00
FILE "03 - Choricli Jul..wav" WAVE
TRACK 03 AUDIO
TITLE "Choricli Jul."
PERFORMER "Chano Dominguez"
INDEX 01 00:00:00
FILE "04 - Pa mi Nino ( Parte 1 ).wav" WAVE
TRACK 04 AUDIO
TITLE "Pa mi Nino ( Parte 1 )"
PERFORMER "Chano Dominguez"
INDEX 01 00:00:00
FILE "05 - Pa mi Nino ( Parte 2 ).wav" WAVE
TRACK 05 AUDIO
TITLE "Pa mi Nino ( Parte 2 )"
PERFORMER "Chano Dominguez"
INDEX 01 00:00:00
FILE "06 - El Toro y La Luna.wav" WAVE
TRACK 06 AUDIO
TITLE "El Toro y La Luna"
PERFORMER "Chano Dominguez"
INDEX 01 00:00:00
FILE "07 - Mr. C. I..wav" WAVE
TRACK 07 AUDIO
TITLE "Mr. C. I."
PERFORMER "Chano Dominguez"
INDEX 01 00:00:00
FILE "08 - Marea Alta.wav" WAVE
TRACK 08 AUDIO
TITLE "Marea Alta"
PERFORMER "Chano Dominguez"
INDEX 01 00:00:00
FILE "09 - Well You Needn't.wav" WAVE
TRACK 09 AUDIO
TITLE "Well You Needn't"
PERFORMER "Chano Dominguez"
INDEX 01 00:00:00
FILE "10 - La Tarara.wav" WAVE
TRACK 10 AUDIO
TITLE "La Tarara"
PERFORMER "Chano Dominguez"
INDEX 01 00:00:00
FILE "11 - El Estero.wav" WAVE
TRACK 11 AUDIO
TITLE "El Estero"
PERFORMER "Chano Dominguez"
INDEX 01 00:00:00
FILE "12 - Time Remembered.wav" WAVE
TRACK 12 AUDIO
TITLE "Time Remembered"
PERFORMER "Chano Dominguez"
INDEX 01 00:00:00
00:22
282
Нет комментариев. Ваш будет первым!