Поиск

(World Fusion, Latin Jazz, Flamenco) [CD] Blas Cordoba "El Kejio'" & Chano Dominguez - Bendito - 2014, FLAC (tracks+.cue), lossless

(World Fusion, Latin Jazz, Flamenco) [CD] Blas Cordoba "El Kejio'" & Chano Dominguez - Bendito - 2014, FLAC (tracks+.cue), lossless
Треклист:
Blas Córdoba "El Kejío" & Chano Domínguez - Bendito Жанр: World Fusion, Latin Jazz, Flamenco
Носитель: CD
Год издания: 2014
Издатель (лейбл): Nuba Records
Номер по каталогу: NUBA 7849
Аудиокодек: FLAC (*.flac)
Тип рипа: tracks+.cue
Битрейт аудио: lossless
Продолжительность: 42:43
Rip by dtromp
Наличие сканов в содержимом раздачи: да
Треклист:
01. Apocalipsis Flamenca (0:43)
02. Quiero Contar (4:51)
03. Fumando Espero (5:04)
04. Adis (3:39)
05. Aroma De Tu Piel (3:12)
06. Agua De La Mañana (3:25)
07. Hacia Dónde (4:18)
08. Te Demostrao (3:41)
09. Undebel Del Cielo (7:43)
10. Malagueña (6:07)
 
 
Лог создания рипа
Exact Audio Copy V1.1 from 23. June 2015
EAC extraction logfile from 22. August 2015, 17:43
Blas Cordoba 'El Kejio' & Chano Dominguez / Bendito
Used drive : ATAPI iHBS112 2 Adapter: 1 ID: 0
Read mode : Secure
Utilize accurate stream : Yes
Defeat audio cache : Yes
Make use of C2 pointers : No
Read offset correction : 6
Overread into Lead-In and Lead-Out : No
Fill up missing offset samples with silence : Yes
Delete leading and trailing silent blocks : No
Null samples used in CRC calculations : Yes
Used interface : Native Win32 interface for Win NT & 2000
Gap handling : Appended to previous track
Used output format : User Defined Encoder
Selected bitrate : 1024 kBit/s
Quality : High
Add ID3 tag : No
Command line compressor : C:\Program Files\Exact Audio Copy\Flac\flac.exe
Additional command line options : -8 -V -T "ARTIST=%artist%" -T "TITLE=%title%" -T "ALBUM=%albumtitle%" -T "DATE=%year%" -T "TRACKNUMBER=%tracknr%" -T "TOTALTRACKS=%numtracks%" -T "GENRE=%genre%" -T "ALBUMARTIST=%albumartist%" -T "ALBUM ARTIST=%albumartist%" -T "COMPOSER=%composer%" -T "PERFORMER=%albuminterpret%" -T "DISCNUMBER=%cdnumber%" -T "TOTALDISCS=%totalcds%" -T "COMMENT=EAC Secure Mode, Test & Copy, AccurateRip, FLAC -8" %source%
TOC of the extracted CD
Track | Start | Length | Start sector | End sector
---------------------------------------------------------
1 | 0:00.00 | 0:42.67 | 0 | 3216
2 | 0:42.67 | 4:50.71 | 3217 | 25037
3 | 5:33.63 | 5:03.73 | 25038 | 47835
4 | 10:37.61 | 3:38.64 | 47836 | 64249
5 | 14:16.50 | 3:12.23 | 64250 | 78672
6 | 17:28.73 | 3:24.41 | 78673 | 94013
7 | 20:53.39 | 4:17.40 | 94014 | 113328
8 | 25:11.04 | 3:41.22 | 113329 | 129925
9 | 28:52.26 | 7:43.37 | 129926 | 164687
10 | 36:35.63 | 6:06.61 | 164688 | 192198
Track 1
Filename P:\DL\Blas Cordoba 'El Kejio' & Chano Dominguez - Bendito (2014) [FLAC]\01 - Apocalipsis Flamenca.wav
Pre-gap length 0:00:02.00
Peak level 63.5 %
Extraction speed 3.2 X
Track quality 100.0 %
Test CRC 21EDC1C3
Copy CRC 21EDC1C3
Accurately ripped (confidence 2) [8DF92099] (AR v2)
Copy OK
Track 2
Filename P:\DL\Blas Cordoba 'El Kejio' & Chano Dominguez - Bendito (2014) [FLAC]\02 - Quiero Contar.wav
Peak level 98.7 %
Extraction speed 5.7 X
Track quality 100.0 %
Test CRC 37FDC526
Copy CRC 37FDC526
Accurately ripped (confidence 2) [0B837D64] (AR v2)
Copy OK
Track 3
Filename P:\DL\Blas Cordoba 'El Kejio' & Chano Dominguez - Bendito (2014) [FLAC]\03 - Fumando Espero.wav
Pre-gap length 0:00:01.00
Peak level 99.2 %
Extraction speed 6.3 X
Track quality 100.0 %
Test CRC 1D4D1811
Copy CRC 1D4D1811
Accurately ripped (confidence 2) [0E56213C] (AR v2)
Copy OK
Track 4
Filename P:\DL\Blas Cordoba 'El Kejio' & Chano Dominguez - Bendito (2014) [FLAC]\04 - Adis.wav
Pre-gap length 0:00:02.00
Peak level 99.1 %
Extraction speed 6.6 X
Track quality 100.0 %
Test CRC E1A70AED
Copy CRC E1A70AED
Accurately ripped (confidence 2) [FF3FC7CB] (AR v2)
Copy OK
Track 5
Filename P:\DL\Blas Cordoba 'El Kejio' & Chano Dominguez - Bendito (2014) [FLAC]\05 - Aroma De Tu Piel.wav
Pre-gap length 0:00:02.00
Peak level 98.4 %
Extraction speed 6.8 X
Track quality 100.0 %
Test CRC 283D96EC
Copy CRC 283D96EC
Accurately ripped (confidence 2) [C3768FD8] (AR v2)
Copy OK
Track 6
Filename P:\DL\Blas Cordoba 'El Kejio' & Chano Dominguez - Bendito (2014) [FLAC]\06 - Agua De La Manana.wav
Pre-gap length 0:00:02.00
Peak level 97.9 %
Extraction speed 7.0 X
Track quality 100.0 %
Test CRC 76E022E3
Copy CRC 76E022E3
Accurately ripped (confidence 2) [2D3C76E9] (AR v2)
Copy OK
Track 7
Filename P:\DL\Blas Cordoba 'El Kejio' & Chano Dominguez - Bendito (2014) [FLAC]\07 - Hacia Donde.wav
Pre-gap length 0:00:02.00
Peak level 100.0 %
Extraction speed 7.7 X
Track quality 100.0 %
Test CRC FCAD3CEC
Copy CRC FCAD3CEC
Accurately ripped (confidence 2) [3300A575] (AR v2)
Copy OK
Track 8
Filename P:\DL\Blas Cordoba 'El Kejio' & Chano Dominguez - Bendito (2014) [FLAC]\08 - Te Demostrao.wav
Pre-gap length 0:00:02.00
Peak level 98.4 %
Extraction speed 7.8 X
Track quality 100.0 %
Test CRC 0CB50124
Copy CRC 0CB50124
Accurately ripped (confidence 2) [9164D967] (AR v2)
Copy OK
Track 9
Filename P:\DL\Blas Cordoba 'El Kejio' & Chano Dominguez - Bendito (2014) [FLAC]\09 - Undebel Del Cielo.wav
Pre-gap length 0:00:02.00
Peak level 100.0 %
Extraction speed 8.0 X
Track quality 99.9 %
Test CRC BDDCCC93
Copy CRC BDDCCC93
Accurately ripped (confidence 2) [B4E9695B] (AR v2)
Copy OK
Track 10
Filename P:\DL\Blas Cordoba 'El Kejio' & Chano Dominguez - Bendito (2014) [FLAC]\10 - Malaguena.wav
Pre-gap length 0:00:02.00
Peak level 98.4 %
Extraction speed 9.1 X
Track quality 100.0 %
Test CRC 544CBA7B
Copy CRC 544CBA7B
Accurately ripped (confidence 2) [E81BA9F8] (AR v2)
Copy OK
All tracks accurately ripped
No errors occurred
End of status report
---- CUETools DB Plugin V2.1.6
[CTDB TOCID: nqwxWxzsL8Dxqa6Ix5tt6PpCwhk-] disk not present in database
Submit result:
==== Log checksum 3FF43EA4BFB9007F54887F4B122004ED4D35D2AF6BC864868DBCA747C130F296 ====
 
Содержание индексной карты (.CUE)
REM GENRE Jazz
REM DATE 2014
REM DISCID 7B0A020A
REM COMMENT "ExactAudioCopy v1.1"
PERFORMER "Blas Cordoba ''El Kejio'' & Chano Dominguez"
TITLE "Bendito"
FILE "01 - Apocalipsis Flamenca.wav" WAVE
TRACK 01 AUDIO
TITLE "Apocalipsis Flamenca"
PERFORMER "Blas Cordoba ''El Kejio'' & Chano Dominguez"
INDEX 01 00:00:00
FILE "02 - Quiero Contar.wav" WAVE
TRACK 02 AUDIO
TITLE "Quiero Contar"
PERFORMER "Blas Cordoba ''El Kejio'' & Chano Dominguez"
INDEX 01 00:00:00
TRACK 03 AUDIO
TITLE "Fumando Espero"
PERFORMER "Blas Cordoba ''El Kejio'' & Chano Dominguez"
INDEX 00 04:49:71
FILE "03 - Fumando Espero.wav" WAVE
INDEX 01 00:00:00
TRACK 04 AUDIO
TITLE "Adis"
PERFORMER "Blas Cordoba ''El Kejio'' & Chano Dominguez"
INDEX 00 05:01:73
FILE "04 - Adis.wav" WAVE
INDEX 01 00:00:00
TRACK 05 AUDIO
TITLE "Aroma De Tu Piel"
PERFORMER "Blas Cordoba ''El Kejio'' & Chano Dominguez"
INDEX 00 03:36:64
FILE "05 - Aroma De Tu Piel.wav" WAVE
INDEX 01 00:00:00
TRACK 06 AUDIO
TITLE "Agua De La Mañana"
PERFORMER "Blas Cordoba ''El Kejio'' & Chano Dominguez"
INDEX 00 03:10:23
FILE "06 - Agua De La Manana.wav" WAVE
INDEX 01 00:00:00
TRACK 07 AUDIO
TITLE "Hacia Dónde"
PERFORMER "Blas Cordoba ''El Kejio'' & Chano Dominguez"
INDEX 00 03:22:41
FILE "07 - Hacia Donde.wav" WAVE
INDEX 01 00:00:00
TRACK 08 AUDIO
TITLE "Te Demostrao"
PERFORMER "Blas Cordoba ''El Kejio'' & Chano Dominguez"
INDEX 00 04:15:40
FILE "08 - Te Demostrao.wav" WAVE
INDEX 01 00:00:00
TRACK 09 AUDIO
TITLE "Undebel Del Cielo"
PERFORMER "Blas Cordoba ''El Kejio'' & Chano Dominguez"
INDEX 00 03:39:22
FILE "09 - Undebel Del Cielo.wav" WAVE
INDEX 01 00:00:00
TRACK 10 AUDIO
TITLE "Malagueña"
PERFORMER "Blas Cordoba ''El Kejio'' & Chano Dominguez"
INDEX 00 07:41:37
FILE "10 - Malaguena.wav" WAVE
INDEX 01 00:00:00
19:35
292
Нет комментариев. Ваш будет первым!