Поиск

(Ethnic Jazz, World Fusion, Oud) [CD] Mohamed Abozekry & Heejaz Extended - Ring Road - 2015, FLAC (tracks+.cue), lossless

(Ethnic Jazz, World Fusion, Oud) [CD] Mohamed Abozekry & Heejaz Extended - Ring Road - 2015, FLAC (tracks+.cue), lossless
Треклист:
Mohamed Abozekry & Heejaz Extended - Ring Road Жанр: Ethnic Jazz, World Fusion, Oud
Носитель: CD
Год издания: 2015
Издатель (лейбл): Jazz Village
Номер по каталогу: JV 570044
Аудиокодек: FLAC (*.flac)
Тип рипа: tracks+.cue
Битрейт аудио: lossless
Продолжительность: 74:37
Rip by dtromp
Наличие сканов в содержимом раздачи: да
Треклист:
01. Transit (11:49)
02. Messages (10:03)
03. Poisson Rouge (11:15)
04. Ring Road (12:43)
05. Sérague (5:31)
06. Sabir (10:10)
07. African Salad (13:05)
Personnel:
Mohamed Abozekry - oud
Ludovic Yapoudjian - piano
Benoit Baud - saxophone
Hugo Reydet - double bass
Anne-Laure Bourget - percussions, tablas, daf, cajon
 
 
Лог создания рипа
Exact Audio Copy V1.1 from 23. June 2015
EAC extraction logfile from 5. September 2015, 8:46
Mohamed Abozekry & Heejaz Extended / Ring Road
Used drive : ATAPI iHBS112 2 Adapter: 1 ID: 0
Read mode : Secure
Utilize accurate stream : Yes
Defeat audio cache : Yes
Make use of C2 pointers : No
Read offset correction : 6
Overread into Lead-In and Lead-Out : No
Fill up missing offset samples with silence : Yes
Delete leading and trailing silent blocks : No
Null samples used in CRC calculations : Yes
Used interface : Native Win32 interface for Win NT & 2000
Gap handling : Appended to previous track
Used output format : User Defined Encoder
Selected bitrate : 1024 kBit/s
Quality : High
Add ID3 tag : No
Command line compressor : C:\Program Files\Exact Audio Copy\Flac\flac.exe
Additional command line options : -8 -V -T "ARTIST=%artist%" -T "TITLE=%title%" -T "ALBUM=%albumtitle%" -T "DATE=%year%" -T "TRACKNUMBER=%tracknr%" -T "TOTALTRACKS=%numtracks%" -T "GENRE=%genre%" -T "ALBUMARTIST=%albumartist%" -T "ALBUM ARTIST=%albumartist%" -T "COMPOSER=%composer%" -T "PERFORMER=%albuminterpret%" -T "DISCNUMBER=%cdnumber%" -T "TOTALDISCS=%totalcds%" -T "COMMENT=EAC Secure Mode, Test & Copy, AccurateRip, FLAC -8" %source%
TOC of the extracted CD
Track | Start | Length | Start sector | End sector
---------------------------------------------------------
1 | 0:00.00 | 11:49.28 | 0 | 53202
2 | 11:49.28 | 10:03.17 | 53203 | 98444
3 | 21:52.45 | 11:15.17 | 98445 | 149086
4 | 33:07.62 | 12:43.35 | 149087 | 206346
5 | 45:51.22 | 5:30.44 | 206347 | 231140
6 | 51:21.66 | 10:09.57 | 231141 | 276872
7 | 61:31.48 | 13:04.67 | 276873 | 335739
Track 1
Filename P:\DL\Mohamed Abozekry & Heejaz Extended - Ring Road (2015) [FLAC]\01 - Transit.wav
Pre-gap length 0:00:02.00
Peak level 99.1 %
Extraction speed 2.6 X
Track quality 100.0 %
Test CRC B0B2E799
Copy CRC B0B2E799
Track not present in AccurateRip database
Copy OK
Track 2
Filename P:\DL\Mohamed Abozekry & Heejaz Extended - Ring Road (2015) [FLAC]\02 - Messages.wav
Peak level 99.1 %
Extraction speed 2.7 X
Track quality 99.9 %
Test CRC EB6F25AE
Copy CRC EB6F25AE
Track not present in AccurateRip database
Copy OK
Track 3
Filename P:\DL\Mohamed Abozekry & Heejaz Extended - Ring Road (2015) [FLAC]\03 - Poisson Rouge.wav
Peak level 99.0 %
Extraction speed 3.5 X
Track quality 100.0 %
Test CRC E934D218
Copy CRC E934D218
Track not present in AccurateRip database
Copy OK
Track 4
Filename P:\DL\Mohamed Abozekry & Heejaz Extended - Ring Road (2015) [FLAC]\04 - Ring Road.wav
Peak level 99.1 %
Extraction speed 4.0 X
Track quality 100.0 %
Test CRC 405DBC5C
Copy CRC 405DBC5C
Track not present in AccurateRip database
Copy OK
Track 5
Filename P:\DL\Mohamed Abozekry & Heejaz Extended - Ring Road (2015) [FLAC]\05 - Serague.wav
Peak level 98.8 %
Extraction speed 4.0 X
Track quality 100.0 %
Test CRC 8E9D9CD2
Copy CRC 8E9D9CD2
Track not present in AccurateRip database
Copy OK
Track 6
Filename P:\DL\Mohamed Abozekry & Heejaz Extended - Ring Road (2015) [FLAC]\06 - Sabir.wav
Peak level 99.0 %
Extraction speed 4.4 X
Track quality 100.0 %
Test CRC 9F832F0C
Copy CRC 9F832F0C
Track not present in AccurateRip database
Copy OK
Track 7
Filename P:\DL\Mohamed Abozekry & Heejaz Extended - Ring Road (2015) [FLAC]\07 - African Salad.wav
Peak level 99.1 %
Extraction speed 4.8 X
Track quality 100.0 %
Test CRC 6B803555
Copy CRC 6B803555
Track not present in AccurateRip database
Copy OK
None of the tracks are present in the AccurateRip database
No errors occurred
End of status report
---- CUETools DB Plugin V2.1.6
[CTDB TOCID: dSWP3oEltOhITzePI2AHtlGAroQ-] found
Submit result:
Track | CTDB Status
1 | (1/1) Accurately ripped
2 | (1/1) Accurately ripped
3 | (1/1) Accurately ripped
4 | (1/1) Accurately ripped
5 | (1/1) Accurately ripped
6 | (1/1) Accurately ripped
7 | (1/1) Accurately ripped
==== Log checksum 0A87EBDCED62E0909D6D88D35567D08BBCA967762BC8C8E8DAF51DD2B1BF37E7 ====
 
Содержание индексной карты (.CUE)
REM GENRE World
REM DATE 2015
REM DISCID 63117C07
REM COMMENT "ExactAudioCopy v1.1"
PERFORMER "Mohamed Abozekry & Heejaz Extended"
TITLE "Ring Road"
FILE "01 - Transit.wav" WAVE
TRACK 01 AUDIO
TITLE "Transit"
PERFORMER "Mohamed Abozekry & Heejaz Extended"
INDEX 01 00:00:00
FILE "02 - Messages.wav" WAVE
TRACK 02 AUDIO
TITLE "Messages"
PERFORMER "Mohamed Abozekry & Heejaz Extended"
INDEX 01 00:00:00
FILE "03 - Poisson Rouge.wav" WAVE
TRACK 03 AUDIO
TITLE "Poisson Rouge"
PERFORMER "Mohamed Abozekry & Heejaz Extended"
INDEX 01 00:00:00
FILE "04 - Ring Road.wav" WAVE
TRACK 04 AUDIO
TITLE "Ring Road"
PERFORMER "Mohamed Abozekry & Heejaz Extended"
INDEX 01 00:00:00
FILE "05 - Serague.wav" WAVE
TRACK 05 AUDIO
TITLE "Sйrague"
PERFORMER "Mohamed Abozekry & Heejaz Extended"
INDEX 01 00:00:00
FILE "06 - Sabir.wav" WAVE
TRACK 06 AUDIO
TITLE "Sabir"
PERFORMER "Mohamed Abozekry & Heejaz Extended"
INDEX 01 00:00:00
FILE "07 - African Salad.wav" WAVE
TRACK 07 AUDIO
TITLE "African Salad"
PERFORMER "Mohamed Abozekry & Heejaz Extended"
INDEX 01 00:00:00
19:34
325
Нет комментариев. Ваш будет первым!