Поиск

(World Fusion, Latin Jazz) Carlos Villoslada - Tabanqueando En La Plaza Nina - 2010, FLAC (tracks+.cue), lossless

(World Fusion, Latin Jazz) Carlos Villoslada - Tabanqueando En La Plaza Nina - 2010, FLAC (tracks+.cue), lossless
Треклист:
•Carlos Villoslada - Tabanqueando En La Plaza Nina•
Жанр: World Fusion, Latin Jazz
Год издания: 2010
Издатель (лейбл): Surfonia
Номер по каталогу: Ref. 102115
Аудиокодек: FLAC (*.flac)
Тип рипа: tracks+.cue
Битрейт аудио: lossless
Продолжительность: 00:53:27
Источник (релизер): jlgt
Наличие сканов в содержимом раздачи: да
Треклист:
01. Tabanqueando En La Plaza Nina [05:49]
02. Despues De Tocar [08:26]
03. Cabopino [03:41]
04. La Casa De Los Balcones [05:53]
05. La Nina 1565 [05:44]
06. 74 Pesetas De Whisky [07:01]
07. Al-Qutum [06:54]
08. La Luna Curiosa [03:31]
09. Paseo Del Perejil [06:22]
Personnel:
Carlos Villoslada - tenor sax
Raúl Gálvez - vocal
Juan Galiardo - piano
Antonio Corrales - double bass
Dani Domínguez - drums
Rubem Dantas - percussion
Diego Montoya - palmas
Pedro de Chana - palmas
 
Лог создания рипа
Exact Audio Copy V1.0 beta 2 from 29. April 2011
EAC extraction logfile from 14. June 2012, 21:18
Carlos Villoslada / Tabanqueando En La Plaza Nina
Used drive : PLEXTOR DVDR PX-L890SA Adapter: 2 ID: 1
Read mode : Secure
Utilize accurate stream : Yes
Defeat audio cache : Yes
Make use of C2 pointers : No
Read offset correction : 6
Overread into Lead-In and Lead-Out : No
Fill up missing offset samples with silence : Yes
Delete leading and trailing silent blocks : No
Null samples used in CRC calculations : Yes
Used interface : Native Win32 interface for Win NT & 2000
Gap handling : Appended to previous track
Used output format : User Defined Encoder
Selected bitrate : 256 kBit/s
Quality : High
Add ID3 tag : No
Command line compressor : C:\Program Files (x86)\Exact Audio Copy\FLAC\FLAC.EXE
Additional command line options : -8 -V -T "ARTIST=%artist%" -T "TITLE=%title%" -T "ALBUM=%albumtitle%" -T "DATE=%year%" -T "TRACKNUMBER=%tracknr%" -T "TOTALTRACKS=%numtracks%" -T "GENRE=%genre%" -T "ALBUMARTIST=%albumartist%" -T "ALBUM ARTIST=%albumartist%
TOC of the extracted CD
Track | Start | Length | Start sector | End sector
---------------------------------------------------------
1 | 0:00.00 | 5:49.66 | 0 | 26240
2 | 5:49.66 | 8:26.49 | 26241 | 64239
3 | 14:16.40 | 3:41.55 | 64240 | 80869
4 | 17:58.20 | 5:53.25 | 80870 | 107369
5 | 23:51.45 | 5:44.68 | 107370 | 133237
6 | 29:36.38 | 7:01.50 | 133238 | 164862
7 | 36:38.13 | 6:54.53 | 164863 | 195965
8 | 43:32.66 | 3:31.70 | 195966 | 211860
9 | 47:04.61 | 6:22.45 | 211861 | 240555
Track 1
Filename F:\Flac Rips\01 - Tabanqueando En La Plaza Nina.wav
Pre-gap length 0:00:02.00
Peak level 98.8 %
Extraction speed 4.0 X
Track quality 100.0 %
Test CRC D9D9EF33
Copy CRC D9D9EF33
Track not present in AccurateRip database
Copy OK
Track 2
Filename F:\Flac Rips\02 - Despues De Tocar.wav
Pre-gap length 0:00:01.11
Peak level 98.8 %
Extraction speed 4.8 X
Track quality 100.0 %
Test CRC 915412AD
Copy CRC 915412AD
Track not present in AccurateRip database
Copy OK
Track 3
Filename F:\Flac Rips\03 - Cabopino.wav
Pre-gap length 0:00:02.12
Peak level 98.8 %
Extraction speed 3.9 X
Track quality 99.9 %
Test CRC B1467C8E
Copy CRC B1467C8E
Track not present in AccurateRip database
Copy OK
Track 4
Filename F:\Flac Rips\04 - La Casa De Los Balcones.wav
Pre-gap length 0:00:02.20
Peak level 100.0 %
Extraction speed 5.5 X
Track quality 100.0 %
Test CRC B1A4F6BB
Copy CRC B1A4F6BB
Track not present in AccurateRip database
Copy OK
Track 5
Filename F:\Flac Rips\05 - La Nina 1565.wav
Pre-gap length 0:00:02.45
Peak level 98.8 %
Extraction speed 5.8 X
Track quality 100.0 %
Test CRC 10C818C1
Copy CRC 10C818C1
Track not present in AccurateRip database
Copy OK
Track 6
Filename F:\Flac Rips\06 - 74 Pesetas De Whisky.wav
Pre-gap length 0:00:02.20
Peak level 98.8 %
Extraction speed 6.3 X
Track quality 100.0 %
Test CRC B633F421
Copy CRC B633F421
Track not present in AccurateRip database
Copy OK
Track 7
Filename F:\Flac Rips\07 - Al-Qutum.wav
Pre-gap length 0:00:02.15
Peak level 98.8 %
Extraction speed 6.8 X
Track quality 100.0 %
Test CRC EB01738C
Copy CRC EB01738C
Track not present in AccurateRip database
Copy OK
Track 8
Filename F:\Flac Rips\08 - La Luna Curiosa.wav
Pre-gap length 0:00:02.41
Peak level 98.8 %
Extraction speed 6.5 X
Track quality 100.0 %
Test CRC 97B199A3
Copy CRC 97B199A3
Track not present in AccurateRip database
Copy OK
Track 9
Filename F:\Flac Rips\09 - Paseo Del Perejil.wav
Pre-gap length 0:00:01.67
Peak level 98.8 %
Extraction speed 7.3 X
Track quality 100.0 %
Test CRC 5B5E6E10
Copy CRC 5B5E6E10
Track not present in AccurateRip database
Copy OK
None of the tracks are present in the AccurateRip database
No errors occurred
End of status report
==== Log checksum 2D4D46FF9EA604978B362034FDB2256F396B3D16D727C2D43772FCCB8548909C ====
 
Содержание индексной карты (.CUE)
REM GENRE Flamenco-Jazz
REM DATE 2012
REM DISCID 6E0C8709
REM COMMENT "ExactAudioCopy v1.0b2"
PERFORMER "Carlos Villoslada"
TITLE "Tabanqueando En La Plaza Nina"
FILE "01 - Tabanqueando En La Plaza Nina.wav" WAVE
TRACK 01 AUDIO
TITLE "Tabanqueando En La Plaza Nina"
PERFORMER "Carlos Villoslada"
FLAGS DCP
INDEX 01 00:00:00
TRACK 02 AUDIO
TITLE "Despues De Tocar "
PERFORMER "Carlos Villoslada"
FLAGS DCP
INDEX 00 05:48:55
FILE "02 - Despues De Tocar.wav" WAVE
INDEX 01 00:00:00
TRACK 03 AUDIO
TITLE "Cabopino"
PERFORMER "Carlos Villoslada"
FLAGS DCP
INDEX 00 08:24:37
FILE "03 - Cabopino.wav" WAVE
INDEX 01 00:00:00
TRACK 04 AUDIO
TITLE "La Casa De Los Balcones"
PERFORMER "Carlos Villoslada"
FLAGS DCP
INDEX 00 03:39:35
FILE "04 - La Casa De Los Balcones.wav" WAVE
INDEX 01 00:00:00
TRACK 05 AUDIO
TITLE "La Nina 1565"
PERFORMER "Carlos Villoslada"
FLAGS DCP
INDEX 00 05:50:55
FILE "05 - La Nina 1565.wav" WAVE
INDEX 01 00:00:00
TRACK 06 AUDIO
TITLE "74 Pesetas De Whisky"
PERFORMER "Carlos Villoslada"
FLAGS DCP
INDEX 00 05:42:48
FILE "06 - 74 Pesetas De Whisky.wav" WAVE
INDEX 01 00:00:00
TRACK 07 AUDIO
TITLE "Al-Qutum"
PERFORMER "Carlos Villoslada"
FLAGS DCP
INDEX 00 06:59:35
FILE "07 - Al-Qutum.wav" WAVE
INDEX 01 00:00:00
TRACK 08 AUDIO
TITLE "La Luna Curiosa"
PERFORMER "Carlos Villoslada"
FLAGS DCP
INDEX 00 06:52:12
FILE "08 - La Luna Curiosa.wav" WAVE
INDEX 01 00:00:00
TRACK 09 AUDIO
TITLE "Paseo Del Perejil"
PERFORMER "Carlos Villoslada"
FLAGS DCP
INDEX 00 03:30:03
FILE "09 - Paseo Del Perejil.wav" WAVE
INDEX 01 00:00:00
10:01
249
Нет комментариев. Ваш будет первым!