Поиск

(World Fusion, African rhythms,Jazz,African Jazz) Dumazz - Mother Rhythm - 1998, FLAC (tracks+.cue), lossless

(World Fusion, African rhythms,Jazz,African Jazz) Dumazz - Mother Rhythm - 1998, FLAC (tracks+.cue), lossless
Треклист:
Dumazz / Mother Rhythm
Жанр:World Fusion, African rhythms,Jazz,African Jazz
Страна-производитель диска: USA
Год издания: 1998
Издатель (лейбл): Narada
Номер по каталогу: 72438-46288-2-6
Страна: USA
Аудиокодек: FLAC (*.flac)
Тип рипа: tracks+.cue
Битрейт аудио: lossless
Продолжительность: 01:01:12
Источник (релизер): Свой диск
Наличие сканов в содержимом раздачи: да
Треклист:
01. Makossa 'Danger' - 04:26
02. Dreamin' Miles (featuring Michael 'Patches' Stewart) - 05:48
03. Africa - 04:35
04. Alima - 04:19
05. Ottotomo (Bebe!) - 05:20
06. Manyaka - 04:34
07. Baka - 05:03
08. Just Between Us - 05:12
09. Bamileke - 04:55
10. Ekanga - 06:08
11. Hosnia - 05:59
12. Andy's Tune #2 - 04:46
 
Лог создания рипа
Exact Audio Copy V1.0 beta 3 from 29. August 2011
Отчёт EAC об извлечении, выполненном 31. января 2013, 22:44
Dumazz / Mother Rhythm
Дисковод: ASUS DRW-24B3ST Adapter: 1 ID: 0
Режим чтения : Достоверность
Использование точного потока : Да
Отключение кэша аудио : Да
Использование указателей C2 : Нет
Коррекция смещения при чтении : 6
Способность читать области Lead-in и Lead-out : Нет
Заполнение пропущенных сэмплов тишиной : Да
Удаление блоков с тишиной в начале и конце : Нет
При вычислениях CRC использовались нулевые сэмплы : Да
Интерфейс : Встроенный Win32-интерфейс для Win NT/2000
Обработка зазоров : Добавлено к предыдущему треку
Выходной формат : Пользовательский кодировщик
Выбранный битрейт : 1024 kBit/s
Качество : Высокий
Добавление ID3-тега : Нет
Утилита сжатия : C:\Program Files\Exact Audio Copy\Flac\flac.exe
Дополнительные параметры : -V -8 -T "Genre=%genre%" -T "Artist=%artist%" -T "Title=%title%" -T "Album=%albumtitle%" -T "Date=%year%" -T "Tracknumber=%tracknr%" -T "Comment=%comment%" %source%
TOC извлечённого CD
Трек | Старт | Длительность | Начальный сектор | Конечный сектор
---------------------------------------------------------------------
1 | 0:00.00 | 4:28.40 | 0 | 20139
2 | 4:28.40 | 5:50.27 | 20140 | 46416
3 | 10:18.67 | 4:37.58 | 46417 | 67249
4 | 14:56.50 | 4:21.55 | 67250 | 86879
5 | 19:18.30 | 5:23.07 | 86880 | 111111
6 | 24:41.37 | 4:36.60 | 111112 | 131871
7 | 29:18.22 | 5:05.15 | 131872 | 154761
8 | 34:23.37 | 5:14.43 | 154762 | 178354
9 | 39:38.05 | 4:58.07 | 178355 | 200711
10 | 44:36.12 | 6:11.20 | 200712 | 228556
11 | 50:47.32 | 6:01.43 | 228557 | 255674
12 | 56:49.00 | 4:46.30 | 255675 | 277154
Трек 1
Имя файла C:\Documents and Settings\Sergei\Мои документы\Моя музыка\EAC\01. Makossa ''Danger''.wav
Длина предзазора 0:00:02.00
Пиковый уровень 99.9 %
Скорость извлечения 3.5 X
Качество трека 100.0 %
CRC теста 2AF98A60
CRC копии 2AF98A60
Точное извлечение (достоверность 3) [8D129AAF] (AR v1)
Копирование... OK
Трек 2
Имя файла C:\Documents and Settings\Sergei\Мои документы\Моя музыка\EAC\02. Dreamin' Miles (featuring Michael ''Patches'' Stewart).wav
Длина предзазора 0:00:01.58
Пиковый уровень 99.9 %
Скорость извлечения 4.2 X
Качество трека 100.0 %
CRC теста 8FE5B988
CRC копии 8FE5B988
Точное извлечение (достоверность 3) [9D47D9DF] (AR v1)
Копирование... OK
Трек 3
Имя файла C:\Documents and Settings\Sergei\Мои документы\Моя музыка\EAC\03. Africa.wav
Длина предзазора 0:00:01.57
Пиковый уровень 100.0 %
Скорость извлечения 4.5 X
Качество трека 100.0 %
CRC теста 9879F652
CRC копии 9879F652
Точное извлечение (достоверность 3) [D0BD6CD5] (AR v1)
Копирование... OK
Трек 4
Имя файла C:\Documents and Settings\Sergei\Мои документы\Моя музыка\EAC\04. Alima.wav
Длина предзазора 0:00:02.25
Пиковый уровень 100.0 %
Скорость извлечения 4.8 X
Качество трека 100.0 %
CRC теста B9C87A35
CRC копии B9C87A35
Точное извлечение (достоверность 3) [D3E2E0AE] (AR v1)
Копирование... OK
Трек 5
Имя файла C:\Documents and Settings\Sergei\Мои документы\Моя музыка\EAC\05. Ottotomo (Bebe!).wav
Длина предзазора 0:00:01.58
Пиковый уровень 89.2 %
Скорость извлечения 5.2 X
Качество трека 100.0 %
CRC теста 1286BD40
CRC копии 1286BD40
Точное извлечение (достоверность 3) [A937BFB4] (AR v1)
Копирование... OK
Трек 6
Имя файла C:\Documents and Settings\Sergei\Мои документы\Моя музыка\EAC\06. Manyaka.wav
Длина предзазора 0:00:02.25
Пиковый уровень 100.0 %
Скорость извлечения 5.4 X
Качество трека 100.0 %
CRC теста CD4D1FD0
CRC копии CD4D1FD0
Точное извлечение (достоверность 3) [7FBC59BD] (AR v1)
Копирование... OK
Трек 7
Имя файла C:\Documents and Settings\Sergei\Мои документы\Моя музыка\EAC\07. Baka.wav
Длина предзазора 0:00:02.57
Пиковый уровень 99.9 %
Скорость извлечения 5.5 X
Качество трека 100.0 %
CRC теста EE9904C4
CRC копии EE9904C4
Точное извлечение (достоверность 3) [58F21E0B] (AR v1)
Копирование... OK
Трек 8
Имя файла C:\Documents and Settings\Sergei\Мои документы\Моя музыка\EAC\08. Just Between Us.wav
Длина предзазора 0:00:02.03
Пиковый уровень 99.9 %
Скорость извлечения 5.5 X
Качество трека 100.0 %
CRC теста 1B576D96
CRC копии 1B576D96
Точное извлечение (достоверность 3) [BB091403] (AR v1)
Копирование... OK
Трек 9
Имя файла C:\Documents and Settings\Sergei\Мои документы\Моя музыка\EAC\09. Bamileke.wav
Длина предзазора 0:00:01.60
Пиковый уровень 100.0 %
Скорость извлечения 5.5 X
Качество трека 100.0 %
CRC теста 8A851AEC
CRC копии 8A851AEC
Точное извлечение (достоверность 3) [82A825A3] (AR v1)
Копирование... OK
Трек 10
Имя файла C:\Documents and Settings\Sergei\Мои документы\Моя музыка\EAC\10. Ekanga.wav
Длина предзазора 0:00:02.22
Пиковый уровень 99.9 %
Скорость извлечения 5.6 X
Качество трека 100.0 %
CRC теста C177F6F2
CRC копии C177F6F2
Точное извлечение (достоверность 3) [9926B306] (AR v1)
Копирование... OK
Трек 11
Имя файла C:\Documents and Settings\Sergei\Мои документы\Моя музыка\EAC\11. Hosnia.wav
Длина предзазора 0:00:02.55
Пиковый уровень 94.5 %
Скорость извлечения 5.6 X
Качество трека 100.0 %
CRC теста 52815544
CRC копии 52815544
Точное извлечение (достоверность 3) [9BA71A4D] (AR v1)
Копирование... OK
Трек 12
Имя файла C:\Documents and Settings\Sergei\Мои документы\Моя музыка\EAC\12. Andy's Tune #2.wav
Длина предзазора 0:00:01.45
Пиковый уровень 99.8 %
Скорость извлечения 5.4 X
Качество трека 100.0 %
CRC теста 65265845
CRC копии 65265845
Точное извлечение (достоверность 3) [4C0BE9F0] (AR v1)
Копирование... OK
Все треки извлечены точно
Ошибок не произошло
Конец отчёта
==== Контрольная сумма отчёта 9CC5304C28139AE529EC56539BDE4A5D1102207940B1E8E18BA03B315EF7AFEF ====
 
Содержание индексной карты (.CUE)
REM GENRE Jazz
REM DATE 1998
REM DISCID 9C0E6F0C
REM COMMENT "ExactAudioCopy v1.0b3"
PERFORMER "Dumazz"
TITLE "Mother Rhythm"
FILE "01. Makossa ''Danger''.wav" WAVE
TRACK 01 AUDIO
TITLE "Makossa 'Danger'"
PERFORMER "Dumazz"
INDEX 01 00:00:00
TRACK 02 AUDIO
TITLE "Dreamin' Miles (featuring Michael 'Patches' Stewart)"
PERFORMER "Dumazz"
INDEX 00 04:26:57
FILE "02. Dreamin' Miles (featuring Michael ''Patches'' Stewart).wav" WAVE
INDEX 01 00:00:00
TRACK 03 AUDIO
TITLE "Africa"
PERFORMER "Dumazz"
INDEX 00 05:48:45
FILE "03. Africa.wav" WAVE
INDEX 01 00:00:00
TRACK 04 AUDIO
TITLE "Alima"
PERFORMER "Dumazz"
INDEX 00 04:35:33
FILE "04. Alima.wav" WAVE
INDEX 01 00:00:00
TRACK 05 AUDIO
TITLE "Ottotomo (Bebe!)"
PERFORMER "Dumazz"
INDEX 00 04:19:72
FILE "05. Ottotomo (Bebe!).wav" WAVE
INDEX 01 00:00:00
TRACK 06 AUDIO
TITLE "Manyaka"
PERFORMER "Dumazz"
INDEX 00 05:20:57
FILE "06. Manyaka.wav" WAVE
INDEX 01 00:00:00
TRACK 07 AUDIO
TITLE "Baka"
PERFORMER "Dumazz"
INDEX 00 04:34:03
FILE "07. Baka.wav" WAVE
INDEX 01 00:00:00
TRACK 08 AUDIO
TITLE "Just Between Us"
PERFORMER "Dumazz"
INDEX 00 05:03:12
FILE "08. Just Between Us.wav" WAVE
INDEX 01 00:00:00
TRACK 09 AUDIO
TITLE "Bamileke"
PERFORMER "Dumazz"
INDEX 00 05:12:58
FILE "09. Bamileke.wav" WAVE
INDEX 01 00:00:00
TRACK 10 AUDIO
TITLE "Ekanga"
PERFORMER "Dumazz"
INDEX 00 04:55:60
FILE "10. Ekanga.wav" WAVE
INDEX 01 00:00:00
TRACK 11 AUDIO
TITLE "Hosnia"
PERFORMER "Dumazz"
INDEX 00 06:08:40
FILE "11. Hosnia.wav" WAVE
INDEX 01 00:00:00
TRACK 12 AUDIO
TITLE "Andy's Tune #2"
PERFORMER "Dumazz"
INDEX 00 05:59:73
FILE "12. Andy's Tune #2.wav" WAVE
INDEX 01 00:00:00
Доп. информация: http://www.allmusic.com/artist/andre-manga-mn0000029618
http://www.allmusic.com/artist/dumazz-mn0000126395
 
Состав
Cassio Duarte - percussion
Andre Manga - bass, vocals, keyboards, percussion, guitar
Bobby English - saxophone
Jan Fabricky - drums, percussion
Sanjay Divecha - guitar
John Opferkuch - keyboards
Chana Smith
Zia De Jan - vocals
Also: Marc Antoine, Andy Suzuki, Michael "Patches" Stewart, Marcel Adjibi, Antti Kotikoski, Emmanuel Nkweyang, Hans Zermuelden, Kaissa Doumbe-Moulongo
09:02
265
Нет комментариев. Ваш будет первым!