Поиск

(World Fusion, Latin Jazz, Brazilian Jazz) [CD] Anat Cohen & Trio Brasileiro - Alegria Da Casa - 2016, FLAC (tracks+.cue), lossless

(World Fusion, Latin Jazz, Brazilian Jazz) [CD] Anat Cohen & Trio Brasileiro - Alegria Da Casa - 2016, FLAC (tracks+.cue), lossless
Треклист:
Anat Cohen & Trio Brasileiro - Alegria Da Casa Жанр: World Fusion, Latin Jazz, Brazilian Jazz
Носитель: CD
Год издания: 2016
Издатель (лейбл): Anzic Records
Номер по каталогу: ANZ-0053
Аудиокодек: FLAC (*.flac)
Тип рипа: tracks+.cue
Битрейт аудио: lossless
Продолжительность: 44:32
Rip by jlgt
Наличие сканов в содержимом раздачи: да
Треклист:
01. Murmurando (4:50)
02. Waiting For Amalia (3:21)
03. Alegria Da Casa (3:27)
04. Baiao Guri (3:15)
05. In The Spirit Of Baden (3:56)
06. Valsa Para Alice (4:18)
07. Engole O Choro (3:30)
08. Sarue Latino (3:00)
09. Feia (6:34)
10. Santa Morena (3:36)
11. Anat's Lament (4:43)
Personnel:
Anat Cohen - clarinet
Dudu Maia - bandolim
Douglas Lora - 7 string guitar
Alexandre Lora - pandeiro & percussion
Special guest:
Gabriel Grossi - harmonica on track 3
 
 
Лог создания рипа
Exact Audio Copy V1.1 from 23. June 2015
EAC extraction logfile from 16. May 2016, 14:00
Anat Cohen & Trio Brasileiro / Alegria Da Casa
Used drive : PLEXTOR DVDR PX-L890SA Adapter: 1 ID: 1
Read mode : Secure
Utilize accurate stream : Yes
Defeat audio cache : Yes
Make use of C2 pointers : No
Read offset correction : 6
Overread into Lead-In and Lead-Out : No
Fill up missing offset samples with silence : Yes
Delete leading and trailing silent blocks : No
Null samples used in CRC calculations : Yes
Used interface : Native Win32 interface for Win NT & 2000
Gap handling : Appended to previous track
Used output format : User Defined Encoder
Selected bitrate : 128 kBit/s
Quality : High
Add ID3 tag : No
Command line compressor : C:\Program Files (x86)\Exact Audio Copy\FLAC\FLAC.EXE
Additional command line options : -8 -V -T "ARTIST=%artist%" -T "TITLE=%title%" -T "ALBUM=%albumtitle%" -T "DATE=%year%" -T "TRACKNUMBER=%tracknr%" -T "TOTALTRACKS=%numtracks%" -T "GENRE=%genre%" -T "ALBUMARTIST=%albumartist%" -T "ALBUM ARTIST=%albumartist%" -T "COMMENT=EAC Secure Mode, Test & Copy, AccurateRip, FLAC -8" %source%
TOC of the extracted CD
Track | Start | Length | Start sector | End sector
---------------------------------------------------------
1 | 0:00.00 | 4:50.35 | 0 | 21784
2 | 4:50.35 | 3:20.47 | 21785 | 36831
3 | 8:11.07 | 3:27.28 | 36832 | 52384
4 | 11:38.35 | 3:15.27 | 52385 | 67036
5 | 14:53.62 | 3:56.29 | 67037 | 84765
6 | 18:50.16 | 4:18.37 | 84766 | 104152
7 | 23:08.53 | 3:30.14 | 104153 | 119916
8 | 26:38.67 | 3:00.35 | 119917 | 133451
9 | 29:39.27 | 6:33.61 | 133452 | 162987
10 | 36:13.13 | 3:35.43 | 162988 | 179155
11 | 39:48.56 | 4:43.20 | 179156 | 200400
Track 1
Filename D:\Flac Rips\01 - Murmurando.wav
Pre-gap length 0:00:02.00
Peak level 99.8 %
Extraction speed 2.9 X
Track quality 99.9 %
Test CRC 54807DF9
Copy CRC 54807DF9
Track not present in AccurateRip database
Copy OK
Track 2
Filename D:\Flac Rips\02 - Waiting for Amalia.wav
Pre-gap length 0:00:03.18
Peak level 94.6 %
Extraction speed 3.7 X
Track quality 100.0 %
Test CRC 6A43491B
Copy CRC 6A43491B
Track not present in AccurateRip database
Copy OK
Track 3
Filename D:\Flac Rips\03 - Alegria Da Casa.wav
Pre-gap length 0:00:02.22
Peak level 97.1 %
Extraction speed 4.0 X
Track quality 100.0 %
Test CRC CD915A22
Copy CRC CD915A22
Track not present in AccurateRip database
Copy OK
Track 4
Filename D:\Flac Rips\04 - Baiao Guri.wav
Pre-gap length 0:00:02.64
Peak level 91.7 %
Extraction speed 4.2 X
Track quality 100.0 %
Test CRC B23A5490
Copy CRC B23A5490
Track not present in AccurateRip database
Copy OK
Track 5
Filename D:\Flac Rips\05 - In The Spirit of Baden.wav
Pre-gap length 0:00:03.58
Peak level 96.7 %
Extraction speed 3.7 X
Track quality 99.9 %
Test CRC 5270BDCC
Copy CRC 5270BDCC
Track not present in AccurateRip database
Copy OK
Track 6
Filename D:\Flac Rips\06 - Valsa Para Alice.wav
Pre-gap length 0:00:03.08
Peak level 94.2 %
Extraction speed 4.9 X
Track quality 100.0 %
Test CRC 7C3F607A
Copy CRC 7C3F607A
Track not present in AccurateRip database
Copy OK
Track 7
Filename D:\Flac Rips\07 - Engole O Choro.wav
Pre-gap length 0:00:04.47
Peak level 99.8 %
Extraction speed 5.0 X
Track quality 100.0 %
Test CRC 659DDEC9
Copy CRC 659DDEC9
Track not present in AccurateRip database
Copy OK
Track 8
Filename D:\Flac Rips\08 - Sarue Latino.wav
Pre-gap length 0:00:05.26
Peak level 98.1 %
Extraction speed 5.0 X
Track quality 100.0 %
Test CRC D0022114
Copy CRC D0022114
Track not present in AccurateRip database
Copy OK
Track 9
Filename D:\Flac Rips\09 - Feia.wav
Pre-gap length 0:00:03.54
Peak level 94.4 %
Extraction speed 5.8 X
Track quality 100.0 %
Test CRC 0D794722
Copy CRC 0D794722
Track not present in AccurateRip database
Copy OK
Track 10
Filename D:\Flac Rips\10 - Santa Morena.wav
Pre-gap length 0:00:03.26
Peak level 96.8 %
Extraction speed 5.7 X
Track quality 100.0 %
Test CRC EE29F970
Copy CRC EE29F970
Track not present in AccurateRip database
Copy OK
Track 11
Filename D:\Flac Rips\11 - Anat's Lament.wav
Pre-gap length 0:00:01.67
Peak level 94.3 %
Extraction speed 6.2 X
Track quality 100.0 %
Test CRC BEC5CC3F
Copy CRC BEC5CC3F
Track not present in AccurateRip database
Copy OK
None of the tracks are present in the AccurateRip database
No errors occurred
End of status report
---- CUETools DB Plugin V2.1.6
[CTDB TOCID: wPe4gMruajyZz_y3WFU2MIO8Wtc-] found
Submit result: already submitted
Track | CTDB Status
1 | (4/4) Accurately ripped
2 | (4/4) Accurately ripped
3 | (4/4) Accurately ripped
4 | (4/4) Accurately ripped
5 | (4/4) Accurately ripped
6 | (4/4) Accurately ripped
7 | (4/4) Accurately ripped
8 | (4/4) Accurately ripped
9 | (4/4) Accurately ripped
10 | (4/4) Accurately ripped
11 | (4/4) Accurately ripped
==== Log checksum 50455FC2BFB4D76560E83C42B3D6C0AF59734A5F0B47EFC5DF669332DDE9E02C ====
 
Содержание индексной карты (.CUE)
REM GENRE "Latin Jazz"
REM DATE 2016
REM DISCID 850A700B
REM COMMENT "ExactAudioCopy v1.1"
PERFORMER "Anat Cohen & Trio Brasileiro"
TITLE "Alegria Da Casa"
FILE "01 - Murmurando.wav" WAVE
TRACK 01 AUDIO
TITLE "Murmurando"
PERFORMER "Anat Cohen & Trio Brasileiro"
INDEX 01 00:00:00
TRACK 02 AUDIO
TITLE "Waiting For Amalia"
PERFORMER "Anat Cohen & Trio Brasileiro"
INDEX 00 04:47:17
FILE "02 - Waiting For Amalia.wav" WAVE
INDEX 01 00:00:00
TRACK 03 AUDIO
TITLE "Alegria Da Casa"
PERFORMER "Anat Cohen & Trio Brasileiro"
INDEX 00 03:18:25
FILE "03 - Alegria Da Casa.wav" WAVE
INDEX 01 00:00:00
TRACK 04 AUDIO
TITLE "Baiao Guri"
PERFORMER "Anat Cohen & Trio Brasileiro"
INDEX 00 03:24:39
FILE "04 - Baiao Guri.wav" WAVE
INDEX 01 00:00:00
TRACK 05 AUDIO
TITLE "In The Spirit Of Baden"
PERFORMER "Anat Cohen & Trio Brasileiro"
INDEX 00 03:11:44
FILE "05 - In The Spirit Of Baden.wav" WAVE
INDEX 01 00:00:00
TRACK 06 AUDIO
TITLE "Valsa Para Alice"
PERFORMER "Anat Cohen & Trio Brasileiro"
INDEX 00 03:53:21
FILE "06 - Valsa Para Alice.wav" WAVE
INDEX 01 00:00:00
TRACK 07 AUDIO
TITLE "Engole O Choro"
PERFORMER "Anat Cohen & Trio Brasileiro"
INDEX 00 04:13:65
FILE "07 - Engole O Choro.wav" WAVE
INDEX 01 00:00:00
TRACK 08 AUDIO
TITLE "Sarue Latino"
PERFORMER "Anat Cohen & Trio Brasileiro"
INDEX 00 03:24:63
FILE "08 - Sarue Latino.wav" WAVE
INDEX 01 00:00:00
TRACK 09 AUDIO
TITLE "Feia"
PERFORMER "Anat Cohen & Trio Brasileiro"
INDEX 00 02:56:56
FILE "09 - Feia.wav" WAVE
INDEX 01 00:00:00
TRACK 10 AUDIO
TITLE "Santa Morena"
PERFORMER "Anat Cohen & Trio Brasileiro"
INDEX 00 06:30:35
FILE "10 - Santa Morena.wav" WAVE
INDEX 01 00:00:00
TRACK 11 AUDIO
TITLE "Anat's Lament"
PERFORMER "Anat Cohen & Trio Brasileiro"
INDEX 00 03:33:51
FILE "11 - Anat's Lament.wav" WAVE
INDEX 01 00:00:00
21:17
324
Нет комментариев. Ваш будет первым!