Вы используете незарегистрированную версию компонента "Вкладки"!

Поиск

(Cuban Jazz, Blues, Bolero) [CD] Omara Portuondo - - Buena Vista Social Club Omara Portuondo - 2000, FLAC (tracks+.cue), lossless

(Cuban Jazz, Blues, Bolero) [CD] Omara Portuondo - - Buena Vista Social Club Omara Portuondo - 2000, FLAC (tracks+.cue), lossless
Треклист:
Omara Portuondo / - Buena Vista Social Club Omara Portuondo
Жанр: Cuban Jazz, Blues, Bolero
Носитель: CD
Страна-производитель диска (релиза): UK
Год издания: 2000
Издатель (лейбл): World Circuit/Nonesuch
Номер по каталогу: 279603
Страна исполнителя (группы): Cuba
Аудиокодек: FLAC (*.flac)
Тип рипа: tracks+.cue
Битрейт аудио: lossless
Продолжительность: 0:40:49.
Источник (релизер): clustert
Наличие сканов в содержимом раздачи: да
Треклист:
01. La sitiera [0:03:57.00]
02. He perdido contigo [0:03:49.30]
03. ?Donde estabas fu? [0:03:47.32]
04. Mariposita de primavera [0:02:54.28]
05. Canta lo sentimental [0:03:26.15]
06. Ella y yo [0:03:24.32]
07. No me vayas a engaar [0:02:53.13]
08. No me llores mas [0:04:59.40]
09. Veinte anos [0:04:43.45]
10. El hombre que yo am [0:03:11.27]
11. Siempre en mi corazon [0:03:42.68]
 
Лог создания рипа
Exact Audio Copy V1.0 beta 3 from 29. August 2011
Отчёт EAC об извлечении, выполненном 8. мая 2016, 17:12
Omara Portuondo / Buena Vista Social Club Omara Portuondo
Дисковод: ASUS DRW-1814BLT Adapter: 4 ID: 0
Режим чтения : Достоверность
Использование точного потока : Да
Отключение кэша аудио : Да
Использование указателей C2 : Нет
Коррекция смещения при чтении : 6
Способность читать области Lead-in и Lead-out : Нет
Заполнение пропущенных сэмплов тишиной : Да
Удаление блоков с тишиной в начале и конце : Нет
При вычислениях CRC использовались нулевые сэмплы : Да
Интерфейс : Встроенный Win32-интерфейс для Win NT/2000
Обработка зазоров : Добавлено к предыдущему треку
Выходной формат : Пользовательский кодировщик
Выбранный битрейт : 128 kBit/s
Качество : Высокий
Добавление ID3-тега : Нет
Утилита сжатия : C:\Program Files\Exact Audio Copy\Flac\flac.exe
Дополнительные параметры : -V -8 -T "Genre=%genre%" -T "Artist=%artist%" -T "Title=%title%" -T "Album=%albumtitle%" -T "Date=%year%" -T "Tracknumber=%tracknr%" -T "Comment=EAC1.0b2 FLAC -8" %source%
TOC извлечённого CD
Трек | Старт | Длительность | Начальный сектор | Конечный сектор
---------------------------------------------------------------------
1 | 0:00.00 | 3:57.00 | 0 | 17774
2 | 3:57.00 | 3:49.30 | 17775 | 34979
3 | 7:46.30 | 3:47.32 | 34980 | 52036
4 | 11:33.62 | 2:54.28 | 52037 | 65114
5 | 14:28.15 | 3:26.15 | 65115 | 80579
6 | 17:54.30 | 3:24.32 | 80580 | 95911
7 | 21:18.62 | 2:53.13 | 95912 | 108899
8 | 24:12.00 | 4:59.40 | 108900 | 131364
9 | 29:11.40 | 4:43.45 | 131365 | 152634
10 | 33:55.10 | 3:11.27 | 152635 | 166986
11 | 37:06.37 | 3:42.68 | 166987 | 183704
Трек 1
Имя файла R:\Раздача 62\Omara Portuondo - 2000 - Buena Vista Social Club Omara Portuondo\01 La sitiera .wav
Длина предзазора 0:00:02.00
Пиковый уровень 100.0 %
Скорость извлечения 2.5 X
Качество трека 100.0 %
CRC теста E786BA5E
CRC копии E786BA5E
Точное извлечение (достоверность 19) [CAD0A44C] (AR v2)
Копирование... OK
Трек 2
Имя файла R:\Раздача 62\Omara Portuondo - 2000 - Buena Vista Social Club Omara Portuondo\02 He perdido contigo .wav
Длина предзазора 0:00:02.03
Пиковый уровень 100.0 %
Скорость извлечения 1.7 X
Качество трека 99.9 %
CRC теста E952A9EF
CRC копии E952A9EF
Точное извлечение (достоверность 19) [DF9AEB03] (AR v2)
Копирование... OK
Трек 3
Имя файла R:\Раздача 62\Omara Portuondo - 2000 - Buena Vista Social Club Omara Portuondo\03 Donde estabas fu .wav
Длина предзазора 0:00:02.00
Пиковый уровень 100.0 %
Скорость извлечения 1.8 X
Качество трека 99.9 %
CRC теста B24CB082
CRC копии B24CB082
Точное извлечение (достоверность 19) [030F48CF] (AR v2)
Копирование... OK
Трек 4
Имя файла R:\Раздача 62\Omara Portuondo - 2000 - Buena Vista Social Club Omara Portuondo\04 Mariposita de primavera .wav
Длина предзазора 0:00:04.22
Пиковый уровень 66.7 %
Скорость извлечения 3.1 X
Качество трека 100.0 %
CRC теста 185DC41D
CRC копии 185DC41D
Точное извлечение (достоверность 19) [D2C2D228] (AR v2)
Копирование... OK
Трек 5
Имя файла R:\Раздача 62\Omara Portuondo - 2000 - Buena Vista Social Club Omara Portuondo\05 Canta lo sentimental .wav
Длина предзазора 0:00:02.65
Пиковый уровень 98.2 %
Скорость извлечения 2.0 X
Качество трека 99.9 %
CRC теста 7916602A
CRC копии 7916602A
Точное извлечение (достоверность 19) [8D68EB78] (AR v2)
Копирование... OK
Трек 6
Имя файла R:\Раздача 62\Omara Portuondo - 2000 - Buena Vista Social Club Omara Portuondo\06 Ella y yo .wav
Длина предзазора 0:00:03.08
Пиковый уровень 100.0 %
Скорость извлечения 3.5 X
Качество трека 100.0 %
CRC теста 74C08381
CRC копии 74C08381
Точное извлечение (достоверность 19) [829039B3] (AR v2)
Копирование... OK
Трек 7
Имя файла R:\Раздача 62\Omara Portuondo - 2000 - Buena Vista Social Club Omara Portuondo\07 No me vayas a engaar .wav
Длина предзазора 0:00:03.17
Пиковый уровень 100.0 %
Скорость извлечения 3.6 X
Качество трека 100.0 %
CRC теста B6CEDBE0
CRC копии B6CEDBE0
Точное извлечение (достоверность 19) [2C9FC5E9] (AR v2)
Копирование... OK
Трек 8
Имя файла R:\Раздача 62\Omara Portuondo - 2000 - Buena Vista Social Club Omara Portuondo\08 No me llores mas .wav
Длина предзазора 0:00:00.63
Пиковый уровень 100.0 %
Скорость извлечения 4.1 X
Качество трека 100.0 %
CRC теста 1858B65B
CRC копии 1858B65B
Точное извлечение (достоверность 19) [E054909E] (AR v2)
Копирование... OK
Трек 9
Имя файла R:\Раздача 62\Omara Portuondo - 2000 - Buena Vista Social Club Omara Portuondo\09 Veinte anos .wav
Длина предзазора 0:00:03.15
Пиковый уровень 97.8 %
Скорость извлечения 4.3 X
Качество трека 100.0 %
CRC теста 7ED46FDF
CRC копии 7ED46FDF
Точное извлечение (достоверность 19) [2F4C64DC] (AR v2)
Копирование... OK
Трек 10
Имя файла R:\Раздача 62\Omara Portuondo - 2000 - Buena Vista Social Club Omara Portuondo\10 El hombre que yo am .wav
Длина предзазора 0:00:02.30
Пиковый уровень 100.0 %
Скорость извлечения 4.2 X
Качество трека 100.0 %
CRC теста 2E99CC13
CRC копии 2E99CC13
Точное извлечение (достоверность 19) [F4139114] (AR v2)
Копирование... OK
Трек 11
Имя файла R:\Раздача 62\Omara Portuondo - 2000 - Buena Vista Social Club Omara Portuondo\11 Siempre en mi corazon .wav
Длина предзазора 0:00:03.60
Пиковый уровень 100.0 %
Скорость извлечения 4.5 X
Качество трека 100.0 %
CRC теста 4E78E45F
CRC копии 4E78E45F
Точное извлечение (достоверность 19) [A888017F] (AR v2)
Копирование... OK
Все треки извлечены точно
Ошибок не произошло
Конец отчёта
==== Контрольная сумма отчёта 1219281F1059C8422649503E42A9223BA3E189DDA5F7C52CD1905CBF84087E82 ====
 
Содержание индексной карты (.CUE)
REM GENRE Bolero
REM DATE 2000
REM DISCID 9609910B
REM COMMENT "ExactAudioCopy v1.0b3"
CATALOG 0075597960327
PERFORMER "Omara Portuondo"
TITLE "Buena Vista Social Club Omara Portuondo"
FILE "01 La sitiera .wav" WAVE
TRACK 01 AUDIO
TITLE "La sitiera"
PERFORMER "Omara Portuondo"
ISRC GAQQG0059001
INDEX 01 00:00:00
TRACK 02 AUDIO
TITLE "He perdido contigo"
PERFORMER "Omara Portuondo"
ISRC GAQQG0059002
INDEX 00 03:54:72
FILE "02 He perdido contigo .wav" WAVE
INDEX 01 00:00:00
TRACK 03 AUDIO
TITLE "?Donde estabas fu?"
PERFORMER "Omara Portuondo"
ISRC GAQQG0059003
INDEX 00 03:47:30
FILE "03 Donde estabas fu .wav" WAVE
INDEX 01 00:00:00
TRACK 04 AUDIO
TITLE "Mariposita de primavera"
PERFORMER "Omara Portuondo"
ISRC GAQQG0059004
INDEX 00 03:43:10
FILE "04 Mariposita de primavera .wav" WAVE
INDEX 01 00:00:00
TRACK 05 AUDIO
TITLE "Canta lo sentimental"
PERFORMER "Omara Portuondo"
ISRC GAQQG0059005
INDEX 00 02:51:38
FILE "05 Canta lo sentimental .wav" WAVE
INDEX 01 00:00:00
TRACK 06 AUDIO
TITLE "Ella y yo"
PERFORMER "Omara Portuondo"
ISRC GAQQG0059006
INDEX 00 03:23:07
FILE "06 Ella y yo .wav" WAVE
INDEX 01 00:00:00
TRACK 07 AUDIO
TITLE "No me vayas a engaar"
PERFORMER "Omara Portuondo"
ISRC GAQQG0059007
INDEX 00 03:21:15
FILE "07 No me vayas a engaar .wav" WAVE
INDEX 01 00:00:00
TRACK 08 AUDIO
TITLE "No me llores mas"
PERFORMER "Omara Portuondo"
ISRC GAQQG0059008
INDEX 00 02:52:25
FILE "08 No me llores mas .wav" WAVE
INDEX 01 00:00:00
TRACK 09 AUDIO
TITLE "Veinte anos"
PERFORMER "Omara Portuondo"
ISRC GAQQG0059009
INDEX 00 04:56:25
FILE "09 Veinte anos .wav" WAVE
INDEX 01 00:00:00
TRACK 10 AUDIO
TITLE "El hombre que yo am"
PERFORMER "Omara Portuondo"
ISRC GAQQG0059010
INDEX 00 04:41:15
FILE "10 El hombre que yo am .wav" WAVE
INDEX 01 00:00:00
TRACK 11 AUDIO
TITLE "Siempre en mi corazon"
PERFORMER "Omara Portuondo"
ISRC GAQQG0059011
INDEX 00 03:07:42
FILE "11 Siempre en mi corazon .wav" WAVE
INDEX 01 00:00:00
Any questions - support@pro-jazz.com. Есть вопросы - support@pro-jazz.com
21:16
489
Нет комментариев. Ваш будет первым!