Поиск

(World Fusion, Latin Jazz) Bobby Matos - Live at M.O.C.A. - 1999, APE (image+.cue), lossless

Треклист:
Bobby Matos / Live at M.O.C.A.
Жанр: World Fusion, Latin Jazz
Страна-производитель диска: USA
Год издания диска: 1999
Издатель (лейбл): CuBop
Номер по каталогу: CBCD020
Страна: USA Bronx, New York
Аудиокодек: APE (*.ape)
Тип рипа: image+.cue
Битрейт аудио: lossless
Продолжительность: 01:08:57
Источник (релизер): dreadbull
Наличие сканов в содержимом раздачи: да
Треклист:
01. Jammin' at the Crossroads of the World [07:31]
02. African Queen [12:49]
03. Highway One [08:52]
04. God of the Crossroads [09:53]
05. Mambo Interlude [04:45]
06. Ana Maria [05:19]
07. Barbara Milagrosa [09:21]
08. Blues Mambe for 'Trane and Sphere [05:23]
09. Bobby's Theme [04:59]
 
Лог создания рипа
EAC extraction logfile from 16. April 2009, 15:05 for CD
Bobby Matos / Live at M.O.C.A
Used drive : PLEXTOR DVDR PX-750A Adapter: 0 ID: 1
Read mode : Secure with NO C2, accurate stream, disable cache
Read offset correction : 102
Overread into Lead-In and Lead-Out : No
Used output format : Internal WAV Routines
44.100 Hz; 16 Bit; Stereo
Other options :
Fill up missing offset samples with silence : Yes
Delete leading and trailing silent blocks : No
Installed external ASPI interface
Range status and errors
Selected range
Filename E:\Donkey Files\Bobby Matos - Live at Moca (1999, CuBop) [eac-ape-scans]\CDImage.wav
Peak level 99.0 %
Range quality 100.0 %
CRC 18834CC4
Copy OK
No errors occured
End of status report
 
Содержание индексной карты (.CUE)
PERFORMER "Bobby Matos"
TITLE "Live at M.O.C.A"
FILE "CDImage.wav" WAVE
TRACK 01 AUDIO
TITLE "Jammin' at the Crossroads of the World"
PERFORMER "Bobby Matos"
INDEX 01 00:00:00
TRACK 02 AUDIO
TITLE "African Queen"
PERFORMER "Bobby Matos"
INDEX 00 07:31:67
INDEX 01 07:31:70
TRACK 03 AUDIO
TITLE "Highway One"
PERFORMER "Bobby Matos"
INDEX 01 20:21:62
TRACK 04 AUDIO
TITLE "God of the Crossroads"
PERFORMER "Bobby Matos"
INDEX 01 29:13:69
TRACK 05 AUDIO
TITLE "Mambo Interlude"
PERFORMER "Bobby Matos"
INDEX 01 39:07:51
TRACK 06 AUDIO
TITLE "Ana Maria"
PERFORMER "Bobby Matos"
INDEX 01 43:53:43
TRACK 07 AUDIO
TITLE "Barbara Milagrosa"
PERFORMER "Bobby Matos"
INDEX 01 49:13:36
TRACK 08 AUDIO
TITLE "Blues Mambe for 'Trane and Sphere"
PERFORMER "Bobby Matos"
INDEX 01 58:34:73
TRACK 09 AUDIO
TITLE "Bobby's Theme"
PERFORMER "Bobby Matos"
INDEX 01 63:58:09
 
Состав
Bobby Matos - timbales, coro;
Steve Baxter - trombone;
Rene Camacho - baby bass, coro;
Victor Сegarra - piano;
Robertito Melendez - congas, coro;
Michael Turre - saxophones, flute, clave, cowbell
22:39
253
Нет комментариев. Ваш будет первым!