Поиск

(Latin jazz) Jimmy Bosch - Salsa Dura - 1999, APE (image+.cue), lossless

Треклист:
Jimmy Bosch / Salsa Dura
Жанр: Latin jazz
Страна-производитель диска: USA
Год издания диска: 1999
Издатель (лейбл): Ryko Latino
Номер по каталогу: RL CD 1007
Страна: US Hoboken, NJ
Аудиокодек: APE (*.ape)
Тип рипа: image+.cue
Битрейт аудио: lossless
Продолжительность: 00:57:39
Источник (релизер): (dreadbull)
Наличие сканов в содержимом раздачи: да
Треклист:
01. La cacharra [04:57]
02. Canta mi mozambique [05:44]
03. Pa' mantener tradiciуn [04:17]
04. La noticia [04:13]
05. Impacto tendremos [03:23]
06. Toco el trombуn [05:13]
07. Viento frнo [05:18]
08. Speak no evil [05:13]
09. Amor por tн [03:49]
10. Vengo de amor [05:00]
11. Sigo cambiando [04:25]
12. Un poquito mбs [06:01]
 
Лог создания рипа
EAC extraction logfile from 30. August 2008, 15:33 for CD
Jimmy Bosch / Salsa Dura
Used drive : PLEXTOR DVDR PX-750A Adapter: 0 ID: 1
Read mode : Secure with NO C2, accurate stream, disable cache
Read offset correction : 102
Overread into Lead-In and Lead-Out : No
Used output format : Internal WAV Routines
44.100 Hz; 16 Bit; Stereo
Other options :
Fill up missing offset samples with silence : Yes
Delete leading and trailing silent blocks : No
Installed external ASPI interface
Range status and errors
Selected range
Filename E:\Donkey Files\Jimmy Bosch - Salsa Dura (1999, Ryco Latino) [eac-ape-covers]\CDImage.wav
Peak level 100.0 %
Range quality 100.0 %
CRC 68CCC3E5
Copy OK
No errors occured
End of status report
 
Содержание индексной карты (.CUE)
PERFORMER "Jimmy Bosch"
TITLE "Salsa Dura"
FILE "CDImage.wav" WAVE
TRACK 01 AUDIO
TITLE "La cacharra"
PERFORMER "Jimmy Bosch"
ISRC USRY29900089
INDEX 01 00:00:00
TRACK 02 AUDIO
TITLE "Canta mi mozambique"
PERFORMER "Jimmy Bosch"
ISRC USRY29900090
INDEX 00 04:55:30
INDEX 01 04:57:17
TRACK 03 AUDIO
TITLE "Pa' mantener tradiciуn"
PERFORMER "Jimmy Bosch"
ISRC USRY29900091
INDEX 00 10:39:15
INDEX 01 10:41:32
TRACK 04 AUDIO
TITLE "La noticia"
PERFORMER "Jimmy Bosch"
ISRC USRY29900092
INDEX 00 14:56:50
INDEX 01 14:59:25
TRACK 05 AUDIO
TITLE "Impacto tendremos"
PERFORMER "Jimmy Bosch"
ISRC USRY29900093
INDEX 00 19:10:65
INDEX 01 19:12:60
TRACK 06 AUDIO
TITLE "Toco el trombуn"
PERFORMER "Jimmy Bosch"
ISRC USRY29900094
INDEX 00 22:33:35
INDEX 01 22:35:60
TRACK 07 AUDIO
TITLE "Viento frнo"
PERFORMER "Jimmy Bosch"
ISRC USRY29900095
INDEX 00 27:46:60
INDEX 01 27:49:15
TRACK 08 AUDIO
TITLE "Speak no evil"
PERFORMER "Jimmy Bosch"
ISRC USRY29900096
INDEX 00 33:04:70
INDEX 01 33:07:47
TRACK 09 AUDIO
TITLE "Amor por tн"
PERFORMER "Jimmy Bosch"
ISRC USRY29900097
INDEX 00 38:19:10
INDEX 01 38:21:35
TRACK 10 AUDIO
TITLE "Vengo de amor"
PERFORMER "Jimmy Bosch"
ISRC USRY29900098
INDEX 00 42:08:72
INDEX 01 42:10:47
TRACK 11 AUDIO
TITLE "Sigo cambiando"
PERFORMER "Jimmy Bosch"
ISRC USRY29900099
INDEX 00 47:08:27
INDEX 01 47:10:62
TRACK 12 AUDIO
TITLE "Un poquito mбs"
PERFORMER "Jimmy Bosch"
ISRC USRY29900100
INDEX 00 51:35:02
INDEX 01 51:36:52
 
Об исполнителе (группе)
by Craig Harris
An expressive playing style, marked by flaring melodies and soulful rhythms, has made Jimmy Bosch one of the leading trombone players in contemporary Latin music. Known throughout the Latin communities as "El Trombon Criollo," the New Jersey-born Bosch has strengthened the music of such top-notch Latin groups as Ruben Blades and Son Del Solar, Mark Anthony, Eddie Palmieri, Perfecta Combinacion, Manny Oquendo Y Libre, Cachao, Celia Cruz, La India and Ray Baretto. Bosch has led his own group, the Masters, since 1996.
Bosch, one of 11 children raised in a poor family, began playing trombone in school at age 11. Two years later, he made his professional debut with a Hoboken-based merengue band, Arcoires. In 1978, Bosch enrolled in the classical music department at Rutgers University and became a member of the influential Salsa band Manny Oquendo Y Libre. He continues to perform and record with the group occasionally. Bosch's debut album as a bandleader, Soneando Trombon, features guest appearances by Cuban trumpet legend Chocolate Armenteros and vocalist Pete Rodriguez. Salsa Dura followed in 1999.
 
Об альбоме (сборнике)
by Heather Phares
Jimmy Bosch's Salsa Dura is his second album as a bandleader, as well as his second album for the RykoLatino label. This time Bosch melds Caribbean rhythms with New York attitude, and the result is a collection of salsa dance tunes, sescargas, boleros, mozambiques, plenas and guajiras with detailed arrangements and energetic playing from Bosch and his band.
 
Состав
Jimmy Bosch - trombone, background vocals;
Steve Turre - trombone, conch shells (#12);
Felix "Junior" Vega - trumpet;
Richard Pons - baritone sax (#1-6,8-10), flute (#7,11);
Jeff Lederer - tenor (#1-12) & soprano (#9) sax, clarinet (#3);
David Sánchez - tenor sax (#2,8);
Abiud "Humpy" Troche - bass;
Nelson González - tres (#3,6,7,10);
Ricky Gonzáles (#1,2,6,8), Alfredo Valdés, Jr. (#2,4,5,7,9,11,12), Chucho Valdés (#3,10) - piano;
Jimmy Delgado - timbales;
George Delgado - congas (#1-4,6,8-12), pandereta segunda (#5);
Richie Flores - congas (#5,7);
Chucky López - bongos (#1,2,6-11);
Louis Bauzó - bongos (#2,4,12), cajones (#10) pandereta requinto (#5);
Pedro Emilio Rodríguez - clave (#6,8,10), güiro (#1-3,5,10-12), maracas (#4,6,8,9));
Efrain "Frankie" Vasques - lead vocal (#1,10), coro (#1-5,10,12);
Herman Olivera - lead vocal (#5-6,11), coro (#2,4-7,10-12);
Frankie Morales - lead vocal (#4,9), coro (#1,2,4,6,7,10,12);
Frankie Seguinot - coro (#11);
Cita Rodríguez - coro (#11)
23:40
352
Нет комментариев. Ваш будет первым!