Поиск

(World Fusion, Latin Folk) Maria Joao, Mario Laginha - Cor - 1998, FLAC (image+.cue), lossless

(World Fusion, Latin Folk) Maria Joao, Mario Laginha - Cor - 1998, FLAC (image+.cue), lossless
Треклист:
Maria Joăo e Mário Laginha - Cor
Жанр: World Fusion, Latin Folk
Год выпуска диска: 1998
Производитель диска: Россия
Аудио кодек: FLAC
Тип рипа: image+.cue
Битрейт аудио: lossless
Продолжительность: 50:22
Трэклист:
1 Horn Please (Joao, Laginha) 3:23
2 Há Gente Aqui (Joao, Laginha) 5:26
3 Rafael Ou a Cor de Mocambique (Joao, Laginha) 5:00
4 Nazuk (Joao, Laginha) 4:46
5 Saris E Capulanas (Joao, Laginha) 7:28
6 Preto E Branco (Joao, Laginha) 8:12
7 Charles on a Sunday With Sunday Clothes (Joao, Laginha) 4:28
8 Nhlonge Yamina (Joao, Laginha) 2:53
9 A Forbidden Love Affair (Joao, Laginha) 8:33
Состав:
Maria João - Vocals, Voices, Engineer
Mário Laginha - Piano
Trilok Gurtu - Percussion, Drums, Tabla, Balafon
Wolfgang Muthspiel - Guitar (Acoustic), Guitar, Guitar (Electric), Sitar
 
EAC Log
Exact Audio Copy V0.99 prebeta 5 from 4. May 2009
EAC extraction logfile from 3. September 2009, 11:52
Maria Jo�o e M�rio Laginha / Cor
Used drive : Optiarc DVD RW AD-7543A Adapter: 2 ID: 0
Read mode : Secure
Utilize accurate stream : Yes
Defeat audio cache : Yes
Make use of C2 pointers : No
Read offset correction : 48
Overread into Lead-In and Lead-Out : No
Fill up missing offset samples with silence : Yes
Delete leading and trailing silent blocks : No
Null samples used in CRC calculations : Yes
Used interface : Native Win32 interface for Win NT & 2000
Used output format : Internal WAV Routines
Sample format : 44.100 Hz; 16 Bit; Stereo
TOC of the extracted CD
Track | Start | Length | Start sector | End sector
---------------------------------------------------------
1 | 0:00.00 | 3:25.12 | 0 | 15386
2 | 3:25.12 | 5:26.73 | 15387 | 39909
3 | 8:52.10 | 5:00.70 | 39910 | 62479
4 | 13:53.05 | 4:46.32 | 62480 | 83961
5 | 18:39.37 | 7:28.45 | 83962 | 117606
6 | 26:08.07 | 8:12.43 | 117607 | 154549
7 | 34:20.50 | 4:31.60 | 154550 | 174934
8 | 38:52.35 | 2:56.70 | 174935 | 188204
9 | 41:49.30 | 8:33.20 | 188205 | 226699
Range status and errors
Selected range
Filename Z:\home\igo\eac\CDImage.wav
Peak level 99.9 %
Range quality 100.0 %
Copy CRC 001E9D21
Copy OK
No errors occurred
AccurateRip summary
Track 1 cannot be verified as accurate (confidence 3) [D385267D], AccurateRip returned [76C93F36]
Track 2 cannot be verified as accurate (confidence 3) [7872ACD8], AccurateRip returned [D413C6FE]
Track 3 cannot be verified as accurate (confidence 3) [0BB07B97], AccurateRip returned [5C42892C]
Track 4 cannot be verified as accurate (confidence 3) [BDAE8C4A], AccurateRip returned [CCE4EDC0]
Track 5 cannot be verified as accurate (confidence 3) [3D006F63], AccurateRip returned [252D0020]
Track 6 cannot be verified as accurate (confidence 3) [A84FBFD6], AccurateRip returned [D67BEC08]
Track 7 cannot be verified as accurate (confidence 3) [40F43279], AccurateRip returned [C4BBFF4F]
Track 8 cannot be verified as accurate (confidence 3) [398AA146], AccurateRip returned [197903B0]
Track 9 cannot be verified as accurate (confidence 3) [C9C7FE47], AccurateRip returned [7CD56D28]
No tracks could be verified as accurate
You may have a different pressing from the one(s) in the database
End of status report
 
auCDtect
auCDtect: CD records authenticity detector, version 0.8.2
Copyright (c) 2004 Oleg Berngardt. All rights reserved.
Copyright (c) 2004 Alexander Djourik. All rights reserved.
------------------------------------------------------------
Processing file: [CDImage.wav]
Detected average hi-boundary frequency: 2.075965e+04 Hz
Detected average lo-boundary frequency: 1.624537e+04 Hz
Detected average hi-cut frequency: 2.191841e+04 Hz
Detected average lo-cut frequency: 1.578901e+04 Hz
Maximum probablis boundary frequency: 2.189100e+04 Hz
Coefficient of nonlinearity of a phase: 3.136244e-02
First order smothness: 5.501668e-01
Second order smothness: 6.414185e-01
------------------------------------------------------------
This track looks like CDDA with probability 100%
------------------------------------------------------------
Final Conclusion:
------------------------------------------------------------
These tracks looks like CDDA with probability 100%
 
Спектр
!!! DownBeat (Самый авторитетный джазовый журнал, 12 номеров)[PDF] !!!
Музыкой делиться приятно! Но хочется большего. Делитесь своими впечатлениями!!!!
07:41
269
Нет комментариев. Ваш будет первым!