Поиск

(World Fusion, Jatin Folk) Maria Joao - Fabula - 1996, FLAC (image+.cue), lossless

(World Fusion, Jatin Folk) Maria Joao - Fabula - 1996, FLAC (image+.cue), lossless
Треклист:
Maria João - Fábula
Жанр: World Fusion, Jatin Folk
Год выпуска диска: 1996
Производитель диска: Россия
Аудио кодек: FLAC
Тип рипа: image+.cue
Битрейт аудио: lossless
Продолжительность: 78:42
Трэклист:
1. Fábula
2. Cor de Rosa
3. Festa Dos Gnomos
4. José Embala O Menino
5. Claridade
6. Bela E a Fera
7. Certeza
8. Fado Do Coração Errante
9. Inês
10. Tarde
11. Douzilles
12. Beatriz
13. Duendes
Состав:
Maria João - Arranger, Musical Direction
Manu Katche - Arranger, Drums, Musical Direction
Mário Laginha - Arranger, Musical Direction, Piano (Grand)
Ralph Towner - Arranger, Guitar (12 String), Guitar (Classical), Musical Direction
Dino Saluzzi - Bandoneon
Ricardo Fontes Rocha - Guitar
Kai Eckhardt de Camargo - Bass, Arranger, Musical Direction
 
EAC Log
Exact Audio Copy V0.99 prebeta 5 from 4. May 2009
EAC extraction logfile from 3. September 2009, 13:37
Maria Jo�o / Fabula
Used drive : Optiarc DVD RW AD-7543A Adapter: 2 ID: 0
Read mode : Secure
Utilize accurate stream : Yes
Defeat audio cache : Yes
Make use of C2 pointers : No
Read offset correction : 48
Overread into Lead-In and Lead-Out : No
Fill up missing offset samples with silence : Yes
Delete leading and trailing silent blocks : No
Null samples used in CRC calculations : Yes
Used interface : Native Win32 interface for Win NT & 2000
Used output format : Internal WAV Routines
Sample format : 44.100 Hz; 16 Bit; Stereo
TOC of the extracted CD
Track | Start | Length | Start sector | End sector
---------------------------------------------------------
1 | 0:00.00 | 8:35.07 | 0 | 38631
2 | 8:35.07 | 5:37.28 | 38632 | 63934
3 | 14:12.35 | 6:30.72 | 63935 | 93256
4 | 20:43.32 | 5:23.08 | 93257 | 117489
5 | 26:06.40 | 7:34.67 | 117490 | 151606
6 | 33:41.32 | 3:47.28 | 151607 | 168659
7 | 37:28.60 | 6:36.30 | 168660 | 198389
8 | 44:05.15 | 4:07.70 | 198390 | 216984
9 | 48:13.10 | 12:18.22 | 216985 | 272356
10 | 60:31.32 | 3:23.15 | 272357 | 287596
11 | 63:54.47 | 8:12.70 | 287597 | 324566
12 | 72:07.42 | 5:35.30 | 324567 | 349721
13 | 77:42.72 | 0:59.70 | 349722 | 354216
Range status and errors
Selected range
Filename Z:\home\igo\eac\CDImage.wav
Peak level 99.9 %
Range quality 100.0 %
Copy CRC 08768C83
Copy OK
No errors occurred
AccurateRip summary
Track 1 cannot be verified as accurate (confidence 7) [2D5D5162], AccurateRip returned [8CEFF017]
Track 2 cannot be verified as accurate (confidence 7) [8B1CBB27], AccurateRip returned [0F5AFB23]
Track 3 cannot be verified as accurate (confidence 7) [03875CE1], AccurateRip returned [AF760DEC]
Track 4 cannot be verified as accurate (confidence 7) [1140FBEC], AccurateRip returned [5122FDA0]
Track 5 cannot be verified as accurate (confidence 7) [8E6623FE], AccurateRip returned [623A4667]
Track 6 cannot be verified as accurate (confidence 7) [504C8D66], AccurateRip returned [EFDF70DF]
Track 7 cannot be verified as accurate (confidence 7) [AB633580], AccurateRip returned [51B0311F]
Track 8 cannot be verified as accurate (confidence 7) [D85CE6FE], AccurateRip returned [EBB140BF]
Track 9 cannot be verified as accurate (confidence 7) [6FF8F081], AccurateRip returned [CD3C37BF]
Track 10 cannot be verified as accurate (confidence 7) [3D8F265F], AccurateRip returned [1629A9CF]
Track 11 cannot be verified as accurate (confidence 7) [D58ECFD9], AccurateRip returned [EC90AA80]
Track 12 cannot be verified as accurate (confidence 7) [76DBE81E], AccurateRip returned [F195AB37]
Track 13 cannot be verified as accurate (confidence 7) [F32B9DFB], AccurateRip returned [25AB6E7C]
No tracks could be verified as accurate
You may have a different pressing from the one(s) in the database
End of status report
 
auCDtect
auCDtect: CD records authenticity detector, version 0.8.2
Copyright (c) 2004 Oleg Berngardt. All rights reserved.
Copyright (c) 2004 Alexander Djourik. All rights reserved.
------------------------------------------------------------
Processing file: [CDImage.wav]
Detected average hi-boundary frequency: 2.037921e+04 Hz
Detected average lo-boundary frequency: 1.399812e+04 Hz
Detected average hi-cut frequency: 2.091000e+04 Hz
Detected average lo-cut frequency: 9.259412e+03 Hz
Maximum probablis boundary frequency: 2.189100e+04 Hz
Coefficient of nonlinearity of a phase: 1.829073e-01
First order smothness: 4.236378e-01
Second order smothness: 5.975363e-01
------------------------------------------------------------
This track looks like CDDA with probability 100%
------------------------------------------------------------
Final Conclusion:
------------------------------------------------------------
These tracks looks like CDDA with probability 100%
 
Спектр
!!! DownBeat (Самый авторитетный джазовый журнал, 12 номеров)[PDF] !!!
Музыкой делиться приятно! Но хочется большего. Делитесь своими впечатлениями!!!!
По всем вопросам пишите личное сообщение пользователю M0p94ok.
07:40
174
Нет комментариев. Ваш будет первым!