Поиск

(World Fusion) Karl Seglem - Urbs - 2007, FLAC (image+.cue), lossless

Karl Seglem - Urbs

Жанр: World Fusion
Год выпуска диска: 2007
Производитель диска: Ozella OZ 014/ NORCD 0661; Norway
Аудио кодек: FLAC
Тип рипа: image+.cue
Битрейт аудио: lossless
Продолжительность: 50:23
Karl Seglem: tenor saxophone, goat horns, electronics
Hakon Høgemo: hardanger fiddle
Gjermund Silset: electric bass, bass, electric guitar
Olav Torget: acoustic & electric guitars, ngoni, baglava
Helge Norbakken: drums, percussion
Reidar Skår: electronics
1. Urbs
2. Morenelys
3. Digeldans (halling)
4. Vridd
5. Rudlande
6. Over Oslo
7. Nye Nord
8. Folketone
9. Fossil
10. Synsrand
 
EAC Report
Exact Audio Copy V0.99 prebeta 4 from 23. January 2008
EAC extraction logfile from 25. May 2008, 13:31
Karl Seglem / Urbs
Used drive : TSSTcorpCD/DVDW SH-S182M Adapter: 2 ID: 0
Read mode : Secure
Utilize accurate stream : Yes
Defeat audio cache : Yes
Make use of C2 pointers : No
Read offset correction : 6
Overread into Lead-In and Lead-Out : No
Fill up missing offset samples with silence : Yes
Delete leading and trailing silent blocks : No
Null samples used in CRC calculations : Yes
Used interface : Installed external ASPI interface
Used output format : User Defined Encoder
Selected bitrate : 1024 kBit/s
Quality : High
Add ID3 tag : No
Command line compressor : C:\Program Files\Exact Audio Copy\FLAC\FLAC.EXE
Additional command line options : -6 -V -T "ARTIST=%a" -T "TITLE=%t" -T "ALBUM=%g" -T "DATE=%y" -T "TRACKNUMBER=%n" -T "GENRE=%m" -T "COMMENT=%e" %s -o %d
TOC of the extracted CD
Track | Start | Length | Start sector | End sector
---------------------------------------------------------
1 | 0:00.00 | 3:42.08 | 0 | 16657
2 | 3:42.08 | 3:23.51 | 16658 | 31933
3 | 7:05.59 | 4:25.07 | 31934 | 51815
4 | 11:30.66 | 3:32.60 | 51816 | 67775
5 | 15:03.51 | 5:24.19 | 67776 | 92094
6 | 20:27.70 | 3:50.23 | 92095 | 109367
7 | 24:18.18 | 5:45.54 | 109368 | 135296
8 | 30:03.72 | 6:29.12 | 135297 | 164483
9 | 36:33.09 | 9:51.23 | 164484 | 208831
10 | 46:24.32 | 3:58.09 | 208832 | 226690
Range status and errors
Selected range
Filename F:\z\Karl Seglem - Urbs.wav
Peak level 97.9 %
Range quality 100.0 %
Copy CRC BD7D5D6E
Copy OK
No errors occurred
AccurateRip summary
Track 1 not present in database
Track 2 not present in database
Track 3 not present in database
Track 4 not present in database
Track 5 not present in database
Track 6 not present in database
Track 7 not present in database
Track 8 not present in database
Track 9 not present in database
Track 10 not present in database
None of the tracks are present in the AccurateRip database
End of status report
 
скрытый текст

рип собственный
15:26
295
Нет комментариев. Ваш будет первым!