Поиск

(Latin Jazz) Irakere — En Vivo — 1990, FLAC (tracks+.cue), lossless

Треклист:
Irakere — En Vivo
Жанр: Latin Jazz
Год выпуска диска: 1990
Производитель диска: ?
Аудио кодек: FLAC
Тип рипа: tracks+.cue
Битрейт аудио: lossless
Продолжительность: 42:02
Трeклист:
01. Bacalo Con Pan (3:47)
02. Moja El Pan (3:54)
03. Xiomara Mayoral-Xiomara (5:08)
04. Taka Taka-Ta (3:17)
05. La Semilla (4:35)
06. Dile a Catalina (5:51)
07. Baila Mi Ritmo (5:49)
08. El Coco (4:52)
09. Aguanile Bonko (4:48)
   Источник:
 
.log
Exact Audio Copy V0.99 prebeta 4 from 23. January 2008
EAC extraction logfile from 19. January 2009, 18:54
Irakere / En Vivo
Used drive : MATSHITADVD/CDRW UJDA770 Adapter: 2 ID: 0
Read mode : Secure
Utilize accurate stream : Yes
Defeat audio cache : Yes
Make use of C2 pointers : No
Read offset correction : 102
Overread into Lead-In and Lead-Out : No
Fill up missing offset samples with silence : Yes
Delete leading and trailing silent blocks : No
Null samples used in CRC calculations : No
Used interface : Installed external ASPI interface
Gap handling : Appended to previous track
Used output format : User Defined Encoder
Selected bitrate : 192 kBit/s
Quality : High
Add ID3 tag : No
Command line compressor : C:\Program Files\Exact Audio Copy\Flac\flac.exe
Additional command line options : -8 -A tukey(0.25) -A gauss(0.1875) -b 4096 -V -T "artist=%a" -T "title=%t" -T "album=%g" -T "date=%y" -T "tracknumber=%n" -T "genre=%m" %s --sector-align
TOC of the extracted CD
Track | Start | Length | Start sector | End sector
---------------------------------------------------------
1 | 0:00.32 | 3:46.60 | 32 | 17041
2 | 3:47.17 | 3:54.23 | 17042 | 34614
3 | 7:41.40 | 5:08.12 | 34615 | 57726
4 | 12:49.52 | 3:16.58 | 57727 | 72484
5 | 16:06.35 | 4:35.32 | 72485 | 93141
6 | 20:41.67 | 5:51.08 | 93142 | 119474
7 | 26:33.00 | 5:48.62 | 119475 | 145636
8 | 32:21.62 | 4:51.65 | 145637 | 167526
9 | 37:13.52 | 4:48.20 | 167527 | 189146
Track 1
Filename E:\Music\Irakere\Irakere-En Vivo-1996-FLAC\01. Irakere - Bacalo con Pan.wav
Pre-gap length 0:00:02.32
Peak level 84.3 %
Track quality 99.9 %
Copy CRC 2B32006A
Track not present in AccurateRip database
Copy OK
Track 2
Filename E:\Music\Irakere\Irakere-En Vivo-1996-FLAC\02. Irakere - Moja el Pan.wav
Pre-gap length 0:00:02.22
Peak level 82.5 %
Track quality 100.0 %
Copy CRC 555DF821
Track not present in AccurateRip database
Copy OK
Track 3
Filename E:\Music\Irakere\Irakere-En Vivo-1996-FLAC\03. Irakere - Xiomara Mayoral-Xiomara.wav
Pre-gap length 0:00:02.53
Peak level 98.7 %
Track quality 99.9 %
Copy CRC 462513C0
Track not present in AccurateRip database
Copy OK
Track 4
Filename E:\Music\Irakere\Irakere-En Vivo-1996-FLAC\04. Irakere - Taka Taka-Ta.wav
Pre-gap length 0:00:02.70
Peak level 97.1 %
Track quality 100.0 %
Copy CRC ECB9142C
Track not present in AccurateRip database
Copy OK
Track 5
Filename E:\Music\Irakere\Irakere-En Vivo-1996-FLAC\05. Irakere - La Semilla.wav
Pre-gap length 0:00:03.30
Peak level 95.6 %
Track quality 100.0 %
Copy CRC 1FD864FB
Track not present in AccurateRip database
Copy OK
Track 6
Filename E:\Music\Irakere\Irakere-En Vivo-1996-FLAC\06. Irakere - Dile a Catalina.wav
Pre-gap length 0:00:03.12
Peak level 100.0 %
Track quality 100.0 %
Copy CRC 43433CD7
Track not present in AccurateRip database
Copy OK
Track 7
Filename E:\Music\Irakere\Irakere-En Vivo-1996-FLAC\07. Irakere - Baila mi Ritmo.wav
Pre-gap length 0:00:03.65
Peak level 90.1 %
Track quality 100.0 %
Copy CRC 77B93371
Track not present in AccurateRip database
Copy OK
Track 8
Filename E:\Music\Irakere\Irakere-En Vivo-1996-FLAC\08. Irakere - El Coco.wav
Pre-gap length 0:00:02.27
Peak level 95.3 %
Track quality 99.9 %
Copy CRC D95CAA1B
Track not present in AccurateRip database
Copy OK
Track 9
Filename E:\Music\Irakere\Irakere-En Vivo-1996-FLAC\09. Irakere - Aguanile Bonko.wav
Pre-gap length 0:00:02.70
Peak level 84.9 %
Track quality 99.9 %
Copy CRC 965D576E
Track not present in AccurateRip database
Copy OK
None of the tracks are present in the AccurateRip database
No errors occurred
End of status report
 
.cue
REM GENRE Latin
REM DATE 1990
REM DISCID 7D09D909
REM COMMENT "ExactAudioCopy v0.99pb4"
PERFORMER "Irakere"
TITLE "En Vivo"
FILE "01. Irakere - Bacalo con Pan.wav" WAVE
TRACK 01 AUDIO
TITLE "Bacalo con Pan"
PERFORMER "Irakere"
PREGAP 00:00:32
INDEX 01 00:00:00
TRACK 02 AUDIO
TITLE "Moja el Pan"
PERFORMER "Irakere"
INDEX 00 03:44:38
FILE "02. Irakere - Moja el Pan.wav" WAVE
INDEX 01 00:00:00
TRACK 03 AUDIO
TITLE "Xiomara Mayoral-Xiomara"
PERFORMER "Irakere"
INDEX 00 03:51:45
FILE "03. Irakere - Xiomara Mayoral-Xiomara.wav" WAVE
INDEX 01 00:00:00
TRACK 04 AUDIO
TITLE "Taka Taka-Ta"
PERFORMER "Irakere"
INDEX 00 05:05:17
FILE "04. Irakere - Taka Taka-Ta.wav" WAVE
INDEX 01 00:00:00
TRACK 05 AUDIO
TITLE "La Semilla"
PERFORMER "Irakere"
INDEX 00 03:13:28
FILE "05. Irakere - La Semilla.wav" WAVE
INDEX 01 00:00:00
TRACK 06 AUDIO
TITLE "Dile a Catalina"
PERFORMER "Irakere"
INDEX 00 04:32:20
FILE "06. Irakere - Dile a Catalina.wav" WAVE
INDEX 01 00:00:00
TRACK 07 AUDIO
TITLE "Baila mi Ritmo"
PERFORMER "Irakere"
INDEX 00 05:47:18
FILE "07. Irakere - Baila mi Ritmo.wav" WAVE
INDEX 01 00:00:00
TRACK 08 AUDIO
TITLE "El Coco"
PERFORMER "Irakere"
INDEX 00 05:46:35
FILE "08. Irakere - El Coco.wav" WAVE
INDEX 01 00:00:00
TRACK 09 AUDIO
TITLE "Aguanile Bonko"
PERFORMER "Irakere"
INDEX 00 04:48:70
FILE "09. Irakere - Aguanile Bonko.wav" WAVE
INDEX 01 00:00:00
   :arrow: Мои раздачи на трекере
15:26
301
Нет комментариев. Ваш будет первым!