Поиск

(World Fusion, Jazz Fusion, Caribbean Traditions, Haitian) [CD] Ayibobo (Jean-Paul Bourelly) - Stone Voudou - 2003, FLAC (tracks+.cue), lossless

(World Fusion, Jazz Fusion, Caribbean Traditions, Haitian) [CD] Ayibobo (Jean-Paul Bourelly) - Stone Voudou - 2003, FLAC (tracks+.cue), lossless
Треклист:
Ayibobo / Stone Voudou
Жанр: World Fusion, Jazz Fusion, Caribbean Traditions, Haitian
Носитель: CD
Год издания: 2003
Издатель (лейбл): DIW
Номер по каталогу: DIW-462
Аудиокодек: FLAC (*.flac)
Тип рипа: tracks+.cue
Битрейт аудио: lossless
Продолжительность: 00:58:11
Источник (релизер): ElegantDandy
Наличие сканов в содержимом раздачи: нет
Треклист:
1. Dessalines
2. Boku Bells
3. Ebadabo
4. Papa Loko
5. Voodoo Blue
6. Anba Aozo
7. Dahomey
8. Yemoja
9. Ya Ya
 
Лог создания рипа
Exact Audio Copy V1.0 beta 3 from 29. August 2011
EAC extraction logfile from 23. April 2015, 10:16
Ayibobo / Stone Voudou
Used drive : HL-DT-STDVDRAM SP60NB50 Adapter: 2 ID: 0
Read mode : Secure
Utilize accurate stream : Yes
Defeat audio cache : Yes
Make use of C2 pointers : No
Read offset correction : 6
Overread into Lead-In and Lead-Out : No
Fill up missing offset samples with silence : Yes
Delete leading and trailing silent blocks : No
Null samples used in CRC calculations : Yes
Used interface : Native Win32 interface for Win NT & 2000
Gap handling : Appended to previous track
Used output format : User Defined Encoder
Selected bitrate : 1024 kBit/s
Quality : High
Add ID3 tag : No
Command line compressor : C:\Program Files (x86)\Exact Audio Copy\Flac\flac.exe
Additional command line options : -8 -V -T "ARTIST=%artist%" -T "TITLE=%title%" -T "ALBUM=%albumtitle%" -T "DATE=%year%" -T "TRACKNUMBER=%tracknr%" -T "GENRE=%genre%" -T "PERFORMER=%albuminterpret%" -T "COMPOSER=%composer%" %haslyrics%--tag-from-file=LYRICS="%lyricsfile%"%haslyrics% -T "ALBUMARTIST=%albumartist%" -T "DISCNUMBER=%cdnumber%" -T "TOTALDISCS=%totalcds%" -T "TOTALTRACKS=%numtracks%" -T "COMMENT=%comment%" %source% -o %dest%
TOC of the extracted CD
Track | Start | Length | Start sector | End sector
---------------------------------------------------------
1 | 0:00.00 | 7:09.49 | 0 | 32223
2 | 7:09.49 | 0:54.05 | 32224 | 36278
3 | 8:03.54 | 8:42.21 | 36279 | 75449
4 | 16:46.00 | 4:42.25 | 75450 | 96624
5 | 21:28.25 | 9:37.09 | 96625 | 139908
6 | 31:05.34 | 7:11.06 | 139909 | 172239
7 | 38:16.40 | 7:13.15 | 172240 | 204729
8 | 45:29.55 | 6:28.23 | 204730 | 233852
9 | 51:58.03 | 6:13.26 | 233853 | 261853
Track 1
Filename C:\FLAC Rips\Ayibobo - Stone Voudou (2003) [FLAC] {DIW-462}\01 - Dessalines.wav
Pre-gap length 0:00:02.00
Peak level 98.8 %
Extraction speed 1.2 X
Track quality 100.0 %
Test CRC FB0CECFC
Copy CRC FB0CECFC
Accurately ripped (confidence 1) [A758F32E] (AR v2)
Copy OK
Track 2
Filename C:\FLAC Rips\Ayibobo - Stone Voudou (2003) [FLAC] {DIW-462}\02 - Boku Bells.wav
Peak level 96.9 %
Extraction speed 0.6 X
Track quality 99.8 %
Test CRC 4802D594
Copy CRC 4802D594
Accurately ripped (confidence 1) [F128AAF0] (AR v2)
Copy OK
Track 3
Filename C:\FLAC Rips\Ayibobo - Stone Voudou (2003) [FLAC] {DIW-462}\03 - Ebadabo.wav
Peak level 98.8 %
Extraction speed 1.5 X
Track quality 100.0 %
Test CRC C155FC87
Copy CRC C155FC87
Accurately ripped (confidence 1) [6AC2F749] (AR v2)
Copy OK
Track 4
Filename C:\FLAC Rips\Ayibobo - Stone Voudou (2003) [FLAC] {DIW-462}\04 - Papa Loko.wav
Pre-gap length 0:00:02.00
Peak level 98.8 %
Extraction speed 1.6 X
Track quality 100.0 %
Test CRC CF408274
Copy CRC CF408274
Accurately ripped (confidence 1) [8CA0B8EC] (AR v2)
Copy OK
Track 5
Filename C:\FLAC Rips\Ayibobo - Stone Voudou (2003) [FLAC] {DIW-462}\05 - Voodoo Blue.wav
Pre-gap length 0:00:02.00
Peak level 98.8 %
Extraction speed 1.9 X
Track quality 100.0 %
Test CRC E65B30E5
Copy CRC E65B30E5
Accurately ripped (confidence 1) [E372C81B] (AR v2)
Copy OK
Track 6
Filename C:\FLAC Rips\Ayibobo - Stone Voudou (2003) [FLAC] {DIW-462}\06 - Anba Aozo.wav
Peak level 98.8 %
Extraction speed 2.0 X
Track quality 100.0 %
Test CRC DD69E654
Copy CRC DD69E654
Accurately ripped (confidence 1) [4662E617] (AR v2)
Copy OK
Track 7
Filename C:\FLAC Rips\Ayibobo - Stone Voudou (2003) [FLAC] {DIW-462}\07 - Dahomey.wav
Peak level 98.8 %
Extraction speed 2.1 X
Track quality 100.0 %
Test CRC E646B89A
Copy CRC E646B89A
Accurately ripped (confidence 1) [0061DD05] (AR v2)
Copy OK
Track 8
Filename C:\FLAC Rips\Ayibobo - Stone Voudou (2003) [FLAC] {DIW-462}\08 - Yemoja.wav
Pre-gap length 0:00:02.00
Peak level 98.8 %
Extraction speed 2.2 X
Track quality 100.0 %
Test CRC 4C0E9BDD
Copy CRC 4C0E9BDD
Accurately ripped (confidence 1) [70C8E5E7] (AR v2)
Copy OK
Track 9
Filename C:\FLAC Rips\Ayibobo - Stone Voudou (2003) [FLAC] {DIW-462}\09 - Ya Ya.wav
Pre-gap length 0:00:02.01
Peak level 98.9 %
Extraction speed 2.4 X
Track quality 100.0 %
Test CRC 3CFCAF7D
Copy CRC 3CFCAF7D
Accurately ripped (confidence 1) [78533083] (AR v2)
Copy OK
All tracks accurately ripped
No errors occurred
End of status report
---- CUETools DB Plugin V2.1.3
[CTDB TOCID: k72XDZZaZ93Wsfemucr3nRBzkiY-] found, Submit result: k72XDZZaZ93Wsfemucr3nRBzkiY- has been confirmed
[7497465f] (2/2) Accurately ripped
==== Log checksum EAD40DCA73171BC6046358EAA780A5C6BF4043297D387E566D95494952AADFF5 ====
 
Содержание индексной карты (.CUE)
REM GENRE "World Fusion"
REM DATE 2003
REM DISCID 6E0DA309
REM COMMENT "ExactAudioCopy v1.0b3"
PERFORMER "Ayibobo"
TITLE "Stone Voudou"
FILE "01 - Dessalines.wav" WAVE
TRACK 01 AUDIO
TITLE "Dessalines"
PERFORMER "Ayibobo"
INDEX 01 00:00:00
FILE "02 - Boku Bells.wav" WAVE
TRACK 02 AUDIO
TITLE "Boku Bells"
PERFORMER "Ayibobo"
INDEX 01 00:00:00
FILE "03 - Ebadabo.wav" WAVE
TRACK 03 AUDIO
TITLE "Ebadabo"
PERFORMER "Ayibobo"
INDEX 01 00:00:00
TRACK 04 AUDIO
TITLE "Papa Loko"
PERFORMER "Ayibobo"
INDEX 00 08:40:21
FILE "04 - Papa Loko.wav" WAVE
INDEX 01 00:00:00
TRACK 05 AUDIO
TITLE "Voodoo Blue"
PERFORMER "Ayibobo"
INDEX 00 04:40:25
FILE "05 - Voodoo Blue.wav" WAVE
INDEX 01 00:00:00
FILE "06 - Anba Aozo.wav" WAVE
TRACK 06 AUDIO
TITLE "Anba Aozo"
PERFORMER "Ayibobo"
INDEX 01 00:00:00
FILE "07 - Dahomey.wav" WAVE
TRACK 07 AUDIO
TITLE "Dahomey"
PERFORMER "Ayibobo"
INDEX 01 00:00:00
TRACK 08 AUDIO
TITLE "Yemoja"
PERFORMER "Ayibobo"
INDEX 00 07:11:15
FILE "08 - Yemoja.wav" WAVE
INDEX 01 00:00:00
TRACK 09 AUDIO
TITLE "Ya Ya"
PERFORMER "Ayibobo"
INDEX 00 06:26:22
FILE "09 - Ya Ya.wav" WAVE
INDEX 01 00:00:00
 
Об исполнителе (группе)
 
Об альбоме (сборнике)
 
Состав
Bass, Drums, Instruments [Vaksin, Kone], Vocals – Chico Boyer
Cello – Muneer B. Fennell
Congas, Percussion, Instruments [Vaksin, Kone], Vocals – Bonga Gaston
Congas, Percussion, Vocals – Jimmy Rock
Drums – Kenny Martin
Guitar, Drums, Vocals – Jean-Paul Bourelly
Percussion, Vocals – Mathias Agbokou
Producer – Jean-Paul Bourelly
Saxophone, Percussion, Instruments [Vaksin, Kone], Vocals – Jacques "Doudou" Chancy*
Vocals, Percussion – Rosna
20:22
373
Нет комментариев. Ваш будет первым!