Поиск

(World Fusion, Ethnic Jazz, Violin & Viola d’Amore) [CD] Jasser Haj Youssef (ft David Linx) - Sira - 2012, FLAC (tracks+.cue), lossless

(World Fusion, Ethnic Jazz, Violin & Viola d’Amore) [CD] Jasser Haj Youssef (ft David Linx) - Sira - 2012, FLAC (tracks+.cue), lossless
Треклист:
Jasser Haj Youssef (ft David Linx) / Sira
Жанр: World Fusion, Ethnic Jazz, Violin & Viola d’Amore
Носитель: CD
Страна-производитель диска (релиза): EU
Год издания: 2012
Издатель (лейбл): RFI / JAS
Номер по каталогу: JAS 1
Страна исполнителя (группы): Tunisia
Аудиокодек: FLAC (*.flac)
Тип рипа: tracks+.cue
Битрейт аудио: lossless
Продолжительность: 00:50:48
Источник (релизер): вата (благодарности - freespace)
Наличие сканов в содержимом раздачи: да
Треклист:
01


 Divine 


02 


Doulab 


03 


Reveria I 


04 


Interlude 


05 


Reveria II 


06 


Eros 


07 


Choral 


08 


Friggya 


09 


Lamento di Tristano 


10 


Bibi ya 


11 


Iskini - Abu Nawas 


12 


Seven secrets 


13 


Saba 


14 


Orients 


15 


Broad 


16 


Echos 


Доп. информация: http://www.jasserhajyoussef.com/
 
Лог создания рипа
Exact Audio Copy V1.1 from 23. June 2015
EAC extraction logfile from 17. September 2015, 5:47
Jasser Haj Youssef / Sira
Used drive : ATAPI iHBS112 2 Adapter: 1 ID: 0
Read mode : Secure
Utilize accurate stream : Yes
Defeat audio cache : Yes
Make use of C2 pointers : No
Read offset correction : 6
Overread into Lead-In and Lead-Out : No
Fill up missing offset samples with silence : Yes
Delete leading and trailing silent blocks : No
Null samples used in CRC calculations : Yes
Used interface : Native Win32 interface for Win NT & 2000
Gap handling : Appended to previous track
Used output format : User Defined Encoder
Selected bitrate : 1024 kBit/s
Quality : High
Add ID3 tag : No
Command line compressor : C:\Program Files\Exact Audio Copy\Flac\flac.exe
Additional command line options : -8 -V -T "ARTIST=%artist%" -T "TITLE=%title%" -T "ALBUM=%albumtitle%" -T "DATE=%year%" -T "TRACKNUMBER=%tracknr%" -T "TOTALTRACKS=%numtracks%" -T "GENRE=%genre%" -T "ALBUMARTIST=%albumartist%" -T "ALBUM ARTIST=%albumartist%" -T "COMPOSER=%composer%" -T "PERFORMER=%albuminterpret%" -T "DISCNUMBER=%cdnumber%" -T "TOTALDISCS=%totalcds%" -T "COMMENT=EAC Secure Mode, Test & Copy, AccurateRip, FLAC -8" %source%
TOC of the extracted CD
Track | Start | Length | Start sector | End sector
---------------------------------------------------------
1 | 0:00.00 | 1:13.08 | 0 | 5482
2 | 1:13.08 | 4:09.32 | 5483 | 24189
3 | 5:22.40 | 3:02.52 | 24190 | 37891
4 | 8:25.17 | 0:20.12 | 37892 | 39403
5 | 8:45.29 | 2:34.49 | 39404 | 51002
6 | 11:20.03 | 1:36.39 | 51003 | 58241
7 | 12:56.42 | 3:22.47 | 58242 | 73438
8 | 16:19.14 | 6:28.52 | 73439 | 102590
9 | 22:47.66 | 2:47.05 | 102591 | 115120
10 | 25:34.71 | 0:42.41 | 115121 | 118311
11 | 26:17.37 | 3:47.57 | 118312 | 135393
12 | 30:05.19 | 5:55.62 | 135394 | 162080
13 | 36:01.06 | 5:06.15 | 162081 | 185045
14 | 41:07.21 | 2:18.54 | 185046 | 195449
15 | 43:26.00 | 4:03.55 | 195450 | 213729
16 | 47:29.55 | 3:18.05 | 213730 | 228584
Track 1
Filename P:\DL\Jasser Haj Youssef - Sira (2012) [FLAC]\01 - Divine.wav
Pre-gap length 0:00:02.00
Peak level 75.9 %
Extraction speed 3.9 X
Track quality 100.0 %
Test CRC AE7B883E
Copy CRC AE7B883E
Accurately ripped (confidence 2) [692D8677] (AR v2)
Copy OK
Track 2
Filename P:\DL\Jasser Haj Youssef - Sira (2012) [FLAC]\02 - Doulab.wav
Peak level 74.3 %
Extraction speed 5.4 X
Track quality 100.0 %
Test CRC A0B1E07A
Copy CRC A0B1E07A
Accurately ripped (confidence 2) [410FDF94] (AR v2)
Copy OK
Track 3
Filename P:\DL\Jasser Haj Youssef - Sira (2012) [FLAC]\03 - Reveria I.wav
Peak level 98.7 %
Extraction speed 5.6 X
Track quality 100.0 %
Test CRC 72598771
Copy CRC 72598771
Accurately ripped (confidence 2) [E142BAD7] (AR v2)
Copy OK
Track 4
Filename P:\DL\Jasser Haj Youssef - Sira (2012) [FLAC]\04 - Interlude.wav
Peak level 66.5 %
Extraction speed 2.5 X
Track quality 100.0 %
Test CRC 001C4F87
Copy CRC 001C4F87
Accurately ripped (confidence 2) [F0E8B61D] (AR v2)
Copy OK
Track 5
Filename P:\DL\Jasser Haj Youssef - Sira (2012) [FLAC]\05 - Reveria II.wav
Peak level 98.7 %
Extraction speed 5.8 X
Track quality 100.0 %
Test CRC EE2B9CF8
Copy CRC EE2B9CF8
Accurately ripped (confidence 2) [234750C1] (AR v2)
Copy OK
Track 6
Filename P:\DL\Jasser Haj Youssef - Sira (2012) [FLAC]\06 - Eros.wav
Pre-gap length 0:00:02.38
Peak level 57.7 %
Extraction speed 5.4 X
Track quality 100.0 %
Test CRC 5AF20DD8
Copy CRC 5AF20DD8
Accurately ripped (confidence 2) [A3F1C24C] (AR v2)
Copy OK
Track 7
Filename P:\DL\Jasser Haj Youssef - Sira (2012) [FLAC]\07 - Choral.wav
Peak level 87.8 %
Extraction speed 6.5 X
Track quality 100.0 %
Test CRC DCF85F2A
Copy CRC DCF85F2A
Accurately ripped (confidence 2) [548E4507] (AR v2)
Copy OK
Track 8
Filename P:\DL\Jasser Haj Youssef - Sira (2012) [FLAC]\08 - Friggya.wav
Pre-gap length 0:00:02.09
Peak level 98.7 %
Extraction speed 7.5 X
Track quality 100.0 %
Test CRC 59D4CB39
Copy CRC 59D4CB39
Accurately ripped (confidence 2) [998E2191] (AR v2)
Copy OK
Track 9
Filename P:\DL\Jasser Haj Youssef - Sira (2012) [FLAC]\09 - Lamento di tristano (live).wav
Peak level 74.2 %
Extraction speed 7.1 X
Track quality 100.0 %
Test CRC C35B2D3C
Copy CRC C35B2D3C
Accurately ripped (confidence 2) [8CC14F14] (AR v2)
Copy OK
Track 10
Filename P:\DL\Jasser Haj Youssef - Sira (2012) [FLAC]\10 - Bibi ya.wav
Peak level 36.5 %
Extraction speed 4.8 X
Track quality 100.0 %
Test CRC B76BE0C6
Copy CRC B76BE0C6
Accurately ripped (confidence 2) [1CF115C0] (AR v2)
Copy OK
Track 11
Filename P:\DL\Jasser Haj Youssef - Sira (2012) [FLAC]\11 - Iskini - abu nawas.wav
Pre-gap length 0:00:01.17
Peak level 90.1 %
Extraction speed 6.5 X
Track quality 99.9 %
Test CRC A952B5F6
Copy CRC A952B5F6
Accurately ripped (confidence 2) [3A4E90F6] (AR v2)
Copy OK
Track 12
Filename P:\DL\Jasser Haj Youssef - Sira (2012) [FLAC]\12 - Seven secrets.wav
Pre-gap length 0:00:01.53
Peak level 98.7 %
Extraction speed 8.6 X
Track quality 100.0 %
Test CRC 632E133D
Copy CRC 632E133D
Accurately ripped (confidence 2) [E6E30287] (AR v2)
Copy OK
Track 13
Filename P:\DL\Jasser Haj Youssef - Sira (2012) [FLAC]\13 - Saba.wav
Pre-gap length 0:00:01.22
Peak level 98.7 %
Extraction speed 8.9 X
Track quality 100.0 %
Test CRC 0ED37493
Copy CRC 0ED37493
Accurately ripped (confidence 2) [3A18954E] (AR v2)
Copy OK
Track 14
Filename P:\DL\Jasser Haj Youssef - Sira (2012) [FLAC]\14 - Orients.wav
Pre-gap length 0:00:03.56
Peak level 53.9 %
Extraction speed 8.2 X
Track quality 100.0 %
Test CRC 8B5D18C9
Copy CRC 8B5D18C9
Accurately ripped (confidence 2) [BA92E920] (AR v2)
Copy OK
Track 15
Filename P:\DL\Jasser Haj Youssef - Sira (2012) [FLAC]\15 - Broad.wav
Pre-gap length 0:00:01.08
Peak level 98.7 %
Extraction speed 9.1 X
Track quality 100.0 %
Test CRC E9F4E966
Copy CRC E9F4E966
Accurately ripped (confidence 2) [9899B162] (AR v2)
Copy OK
Track 16
Filename P:\DL\Jasser Haj Youssef - Sira (2012) [FLAC]\16 - Echos (live).wav
Pre-gap length 0:00:01.74
Peak level 43.8 %
Extraction speed 9.1 X
Track quality 100.0 %
Test CRC CB687FC1
Copy CRC CB687FC1
Accurately ripped (confidence 2) [BD8CE303] (AR v2)
Copy OK
All tracks accurately ripped
No errors occurred
End of status report
---- CUETools DB Plugin V2.1.6
[CTDB TOCID: pjZl5SS9QJVhtI.CxfI5P_DWlpk-] found
Submit result:
Track | CTDB Status
1 | (2/2) Accurately ripped
2 | (2/2) Accurately ripped
3 | (2/2) Accurately ripped
4 | (2/2) Accurately ripped
5 | (2/2) Accurately ripped
6 | (2/2) Accurately ripped
7 | (2/2) Accurately ripped
8 | (2/2) Accurately ripped
9 | (2/2) Accurately ripped
10 | (2/2) Accurately ripped
11 | (2/2) Accurately ripped
12 | (2/2) Accurately ripped
13 | (2/2) Accurately ripped
14 | (2/2) Accurately ripped
15 | (2/2) Accurately ripped
16 | (2/2) Accurately ripped
==== Log checksum A29E866B7A1648070B27391587B2D1C8C56FC0FD3F296FB2A2BEFF908DF9C7BA ====
 
Содержание индексной карты (.CUE)
REM GENRE Jazz
REM DATE 2012
REM DISCID F20BE710
REM COMMENT "ExactAudioCopy v1.1"
PERFORMER "Jasser Haj Youssef"
TITLE "Sira"
FILE "01 - Divine.wav" WAVE
TRACK 01 AUDIO
TITLE "Divine"
PERFORMER "Jasser Haj Youssef"
INDEX 01 00:00:00
FILE "02 - Doulab.wav" WAVE
TRACK 02 AUDIO
TITLE "Doulab"
PERFORMER "Jasser Haj Youssef"
INDEX 01 00:00:00
FILE "03 - Reveria I.wav" WAVE
TRACK 03 AUDIO
TITLE "Reveria I"
PERFORMER "Jasser Haj Youssef"
INDEX 01 00:00:00
FILE "04 - Interlude.wav" WAVE
TRACK 04 AUDIO
TITLE "Interlude"
PERFORMER "Jasser Haj Youssef"
INDEX 01 00:00:00
FILE "05 - Reveria II.wav" WAVE
TRACK 05 AUDIO
TITLE "Reveria II"
PERFORMER "Jasser Haj Youssef"
INDEX 01 00:00:00
TRACK 06 AUDIO
TITLE "Eros"
PERFORMER "Jasser Haj Youssef"
INDEX 00 02:32:20
FILE "06 - Eros.wav" WAVE
INDEX 01 00:00:00
FILE "07 - Choral.wav" WAVE
TRACK 07 AUDIO
TITLE "Choral"
PERFORMER "Jasser Haj Youssef"
INDEX 01 00:00:00
TRACK 08 AUDIO
TITLE "Friggya"
PERFORMER "Jasser Haj Youssef"
INDEX 00 03:20:40
FILE "08 - Friggya.wav" WAVE
INDEX 01 00:00:00
FILE "09 - Lamento di tristano (live).wav" WAVE
TRACK 09 AUDIO
TITLE "Lamento di tristano (live)"
PERFORMER "Jasser Haj Youssef"
INDEX 01 00:00:00
FILE "10 - Bibi ya.wav" WAVE
TRACK 10 AUDIO
TITLE "Bibi ya"
PERFORMER "Jasser Haj Youssef"
INDEX 01 00:00:00
TRACK 11 AUDIO
TITLE "Iskini - abu nawas"
PERFORMER "Jasser Haj Youssef"
INDEX 00 00:41:28
FILE "11 - Iskini - abu nawas.wav" WAVE
INDEX 01 00:00:00
TRACK 12 AUDIO
TITLE "Seven secrets"
PERFORMER "Jasser Haj Youssef"
INDEX 00 03:46:17
FILE "12 - Seven secrets.wav" WAVE
INDEX 01 00:00:00
TRACK 13 AUDIO
TITLE "Saba"
PERFORMER "Jasser Haj Youssef"
INDEX 00 05:54:45
FILE "13 - Saba.wav" WAVE
INDEX 01 00:00:00
TRACK 14 AUDIO
TITLE "Orients"
PERFORMER "Jasser Haj Youssef"
INDEX 00 05:02:48
FILE "14 - Orients.wav" WAVE
INDEX 01 00:00:00
TRACK 15 AUDIO
TITLE "Broad"
PERFORMER "Jasser Haj Youssef"
INDEX 00 02:17:48
FILE "15 - Broad.wav" WAVE
INDEX 01 00:00:00
TRACK 16 AUDIO
TITLE "Echos (live)"
PERFORMER "Jasser Haj Youssef"
INDEX 00 04:01:74
FILE "16 - Echos (live).wav" WAVE
INDEX 01 00:00:00
 
Об исполнителе (англ.) | About Artist (en)

With a degree in Music, Musicology and Education, Jasser Haj Youssef performs worldwide and recently he directed the Mediterranean Youth Orchestra at the Aix Festival and the Chamber Orchestra of Paris at the Saint-Denis Festival in France.
His latest album Sira is a favorite without borders.
With his jazz quartet, Classic and baroque musicians, he has composed a new score : from baroque virtuoso to timeless contemporary, from classical to world music, inspired by Bach or the Classical Oriental music with an Afro groove.
Poetic, with a plural creation that opens the horizon and liberates song.
"His compositions feature hints of Bach and Coltrane, with a touch of the blues". (Europa Press)
"He is a born musician in the true sense of the term. His international stature cannot be denied". (Midi Libre)
DISCOGRAPHIE :
• Jasser Haj Youssef, Resonace (Institut International des Arts/Musicast 2015)
• Jasser Haj Youssef, SIRA (RFI/Musicast, 2012)
http://www.jasserhajyoussef.com/15928/bio
 
Об альбоме (фр.) | About Album (fr)
A la croisée des chemins entre musique classique, jazz et musiques du monde, le jeune violoniste et compositeur tunisien Jasser Haj Youssef fait figure d'une étoile montante : une musicalité rare, une profonde culture musicale, une technique impressionnante mais toujours au service de l'essentiel : la mélodie, le rythme, l'émotion.
Il fait aussi preuve d'une belle originalité : il est en effet le premier à avoir redécouvert la viole d'amour baroque. Jasser maîtrise à merveille cet instrument hors du commun et il a su le mettre au service d'une superbe musique aux multiples facettes : classique, orientale, jazzy, indienne... d'une surprenante modernité.
Dans ses compositions, il y a un clin d'oeil à la musique de Jean-Sébastien Bach et Coltrane avec une touche de Blues (Europa Press).
C'est un artiste né au vrai sens du terme. Sa dimension internationale ne souffre d'aucun doute (Midi Libre).
Dans son premier album, "Sira", Jasser Haj Youssef exprime la diversité de son univers musical, puise son inspiration dans ses racines et fait résonner ses cordes et son âme. Il s'entoure de musiciens issus de différents horizons : David Linx (chant), Christophe Wallemme (contrebasse), Gaël Cadoux (piano), Diogal (chant), Arnaud Dolmen (batterie), Stephane Edouard et Youssef Hbeisch (percussions).
http://www.jasserhajyoussef.com/15927/766347/music/sira-jasser-haj-youssef-quartet
 
Состав | Artists
Jasser Haj Youssef (violin & viola d’amore)
David Linx (chant)
Christophe Wallemme (contrebasse)
Gaël Cadoux (piano)
Diogal (chant)
Arnaud Dolmen (batterie)
Stephane Edouard et Youssef Hbeisch (percussions)
Молодому тунисскому скрипачу и композитору Ясиру Хадж Юсефу, восходящей звезде этно-джазовой сцены, подвластно немало эпох и жанров. Он засветился на нескольких престижных джазовых фестивалях, сразу заявив о себе как о самобытном исполнителе. О Ясире с равным почтением отзываются такие разноплановые корифеи музыкальной сцены, как Дидье Локвуд, Ибрагим Маалуф, братья Чемирани, Л. Субраманиам и Юссу Н'Дур. Ясир играет на классической скрипке и на виоле д’амур – струнном смычковом инструменте эпохи барокко и раннего классицизма, который обладает особым мягким тембром, напоминающим человеческий голос. Можно сказать, что Ясир Хадж Юсеф открыл новую главу на пути возрождения интереса к «виоле любви».
20:23
706
Нет комментариев. Ваш будет первым!