Поиск

(World Fusion) Garaj Mahal - More Mr. Nice Guy - 2010, FLAC (image+.cue), lossless

Garaj Mahal - More Mr. Nice Guy

Жанр: World Fusion
Год выпуска диска: 2010
Производитель диска: Owl Studios OWL00135; USA
Аудио кодек: FLAC
Тип рипа: image+.cue
Битрейт аудио: lossless
Продолжительность: 1:04:07
Fareed Haque: guitars
Kai Eckhardt: bass
Erick Levy: keyboards
the Rick: drums
1. Witch Doctor
2. Faster Than the Speed of Time
3. Tachyonics
4. The Long Form
5. Today
6. Frankly Frankie Ford
7. What My Friends Say
8. Chester the Pester
9. Alison's Pony
 
Release Notes
There is always something new and progressive coming from Garaj Mahal. Featuring jazz guitar artist and sitar virtuoso Fareed Haque, world-renowned jazz bass master and educator Kai Eckhardt, gospel-inspired funky jazz keyboardist Eric Levy, and newly-added drummer/vocalist Sean 'the Rick' Rickman, Garaj Mahal creates a sound that's always growing and always smoking hot.
Since their formation in 2000, Garaj Mahal continues to earn critical acclaim and to grow their fanbase thanks to their ability to deliver serious "shut-up-and-listen" grooves while simultaneously bringing the dance floor alive. Their collective musical experience allows them to constantly push the envelope of composition and improvisation. Their sound - a convergence of jazz-style improvisation, mystical Middle-Eastern atmospheres, and danceable American funk - attracts music lovers from all parts of the spectrum.
 
EAC Report
Exact Audio Copy V0.99 prebeta 4 from 23. January 2008
EAC extraction logfile from 29. July 2010, 22:24
Garaj Mahal / More Mr. Nice Guy
Used drive : TSSTcorpCD/DVDW SH-S182M Adapter: 2 ID: 1
Read mode : Secure
Utilize accurate stream : Yes
Defeat audio cache : Yes
Make use of C2 pointers : No
Read offset correction : 6
Overread into Lead-In and Lead-Out : No
Fill up missing offset samples with silence : Yes
Delete leading and trailing silent blocks : No
Null samples used in CRC calculations : Yes
Used interface : Installed external ASPI interface
Used output format : User Defined Encoder
Selected bitrate : 1024 kBit/s
Quality : High
Add ID3 tag : No
Command line compressor : C:\Program Files\Exact Audio Copy\Flac\flac.exe
Additional command line options : -6 -V -T "ARTIST=%a" -T "TITLE=%t" -T "ALBUM=%g" -T "DATE=%y" -T "TRACKNUMBER=%n" -T "GENRE=%m" -T "COMMENT=EAC FLAC -6" %s
TOC of the extracted CD
Track | Start | Length | Start sector | End sector
---------------------------------------------------------
1 | 0:00.00 | 5:35.64 | 0 | 25188
2 | 5:35.64 | 0:45.35 | 25189 | 28598
3 | 6:21.24 | 8:06.70 | 28599 | 65118
4 | 14:28.19 | 10:40.66 | 65119 | 113184
5 | 25:09.10 | 5:21.67 | 113185 | 137326
6 | 30:31.02 | 9:16.36 | 137327 | 179062
7 | 39:47.38 | 5:16.24 | 179063 | 202786
8 | 45:03.62 | 10:05.29 | 202787 | 248190
9 | 55:09.16 | 8:58.08 | 248191 | 288548
Range status and errors
Selected range
Filename C:\Users\Igor\Music\eac\Garaj Mahal - More Mr. Nice Guy.wav
Peak level 98.8 %
Range quality 100.0 %
Test CRC CBD00F43
Copy CRC CBD00F43
Copy OK
No errors occurred
AccurateRip summary
Track 1 accurately ripped (confidence 1) [E0465098]
Track 2 accurately ripped (confidence 1) [CA965229]
Track 3 accurately ripped (confidence 1) [F508B272]
Track 4 accurately ripped (confidence 1) [5D72CB04]
Track 5 accurately ripped (confidence 1) [808EC4D7]
Track 6 accurately ripped (confidence 1) [390DDFE3]
Track 7 accurately ripped (confidence 1) [5EDE3F69]
Track 8 accurately ripped (confidence 1) [72A05B5F]
Track 9 accurately ripped (confidence 1) [8B2400C6]
All tracks accurately ripped
End of status report

рип собственный
17:09
262
Нет комментариев. Ваш будет первым!