Поиск

(Cuban Jazz, World Fusion, Piano Jazz, Post-Bop) Gonzalo Rubalcaba - Paseo - 2004, FLAC (tracks+.cue), lossless

(Cuban Jazz, World Fusion, Piano Jazz, Post-Bop) Gonzalo Rubalcaba - Paseo - 2004, FLAC (tracks+.cue), lossless
Треклист:
Gonzalo Rubalcaba - Paseo - 2004 (Blue Note)
Жанр: Cuban Jazz, World Fusion, Piano Jazz, Post-Bop
Страна: Cuba
Дата и место записи: Hit Factory and Criteria Studios in Miami, Florida between April 5-9, 2004
Дата выпуска: Sep 28, 2004
Производитель диска, номер, страна: Blue Note 81832
Аудио кодек: FLAC
Тип рипа: (tracks + .cue)
Битрейт аудио: lossless
Включает: Full artwork
Продолжительность: 1:13:04
Источник: Моя коллекция
Риппер: Мой рип
Трэклист:
1. El Guerrillero (Traditional ) - 5:31
2. Preludio en Conga No. 1: Homage to Hilario (Gonzalez ) - 8:02
3. Bottoms Up (Rubalcaba ) - 7:36
4. Sea Change (Rubalcaba ) - 6:53
5. Paseo con Fula (Rubalcaba ) - 10:22
6. Meanwhile (Rubalcaba ) - 9:47
7. Santo Canto (Rubalcaba ) - 7:57
8. Quasar (Rubalcaba ) - 14:08
9. Los Büyes (Traditional ) - 4:42
Состав:
Gonzalo Rubalcaba - Percussion, Piano, Arranger, Keyboards, Programming, Producer, Liner Notes, Sequencing, Editing, Digital Producer
Luis Felipe Lamoglia - Sax (Alto), Sax (Soprano), Sax (Tenor)
Jose Armando Gola - Bass (Electric)
Ignacio Berroa - Drums
with Mario Garcia - Programming, Sequencing, Editing, Digital Producer
Ссылки:
http://www.allaboutjazz.com/php/musician.php?id=3951
http://jazz.ru/mag/213/default.htm
http://www.g-rubalcaba.com/
http://www.zajazz.com/zajazz-2010/21-gonzalo-rubalcaba-quintet.html
Другие здания:
2004 Paseo (limited edition)
 
Несколько слов на английском
Occasionally I like to take advantage of hindsight and see what appraisal I've given to an album long after the review has run and the disc has had time to remain or reappear (or neither) in my player. What I often find is that a disc I've assessed as "good," to eschew more loaded and potentially confusing adjectives, doesn't necessarily have the durability and enduring allure one might expect from a "good" disc, even though it could not by any stretch of the malicious imagination be called a "bad" disc. This is because an album can be very strong on the scale that measures technical skill, passion, interpretation and voice, and yet utterly lacking when it comes to adventurousness, vision and daring. Star ratings and Manichean good/bad distinctions should therefore always be put in their proper context, and credit given where it's due.
Cuban pianist Gonzalo Rubalcaba is, quite simply, one of the intrepid types. He struck me as such the first time I, as a relative newcomer to jazz, saw him perform in a trio at Dmitriou's Jazz Alley in Seattle back in 2000 (he was touring on the back of Inner Voyage then), and that definition of him has been firmly burned into my mind by his subsequent live and studio recordings as leader and sideman, among them Supernova , Charlie Haden's Nocturne , and now Paseo. He usually has at least one foot planted outside the conventional confines of his art. What Rubalcaba attempts on these albums does not always work, but the fact remains that he leaps where others tiptoe.
Paseo is unique among Rubalcaba's discography in that he revisits directly the music of his homeland. Not that he hasn't always operated within the Afro-Cuban mode; but here, years after his emigration to America, he has struck up an intelligent and challenging conversation with the music that is now a part of the very foundations of his culture and likewise his personal development. The mere act signifies that he has enough confidence in his own wisdom and originality to tinker with the fundamentals. He also feels he's matured sufficiently to tackle some of his own material for a second time ("Santo Canto" from 1992's Rapsodia , for instance), even retitling "Supernova II" as "Quasar."
Kicking off Paseo is "El Guerrillero," or "the soldier," a well-known Cuban folk tune. With a sly wink, Rubalcaba intros simply enough; but then he commences to dissect this familiar and unsophisticated melody in as many ways as possible, savoring single notes and toying with chord variations. Luis Felipe Lamoglia later follows this breezy, lighthearted lead while Rubalcaba girds the saxophonist's solo with firm, insistent statements that are comically overzealous. And is that a Jew's harp twanging away in the background, or just one of the quirky synthesizer effects? To treat this music too reverentially, Rubalcaba acknowledges, would be missing the point of it.
The pianist takes a distinctly Monk-informed route on his colorful, stuttering interpretation of the Cuban composer Hilario González's "Preludio en Conga No.1," featured here as just "Prelude in Conga," which slowly segues into Rubalcaba's self-penned, somewhat ungainly "Homage to Hilario." Longtime drummer Ignacio Berroa and electric bassist Armando Gola drive this second part - Berroa fleet and delicate, almost dainty, Gola gurgling and bubbling. The surprise comes at the end: a shimmering electronic splash and synthesized marching band horns.
The bright tropicality of "Paseo con Fula" is tempered only by its casualness. Lamoglia goes note-for- note on an extended passage with Rubalcaba, repeatedly spelling out the gently zig-zagging melody; and this is followed by Rubalcaba's fairly tame keyboard solo. Along with the funky boost of the electric bass and Berroa's zesty drumming, as well as lush keyboard emphases, it sounds too self-consciously fusion for its own good. The same characteristic could be said to affect the fiery, shifting jam "Quasar." But Paseo shouldn't be considered a foray into fusion per se, rather a resolutely Afro-Cuban jazz recording that incorporates elements associated with fusion. Admittedly, there are still moments where the rationale seems as questionable as Bill Evans and his thankfully brief affair with the electric piano.
"Meanwhile" and "Bottoms Up" skittishly dance around either side of the primary melody. Teeming with intricately packed solos and group dynamics, these are two of the more convoluted and demanding compositions to be found on Paseo. "Encantation" is the album's hidden gem, a samba-like ballad that is both sensual and ambient. "Los Bueyes" closes out the album in the same way as it opened, a quaint, folky tune being subjected to various mutations and finally restored to its former state, a good-natured pat on the behind as it scampers off.
http://www.allaboutjazz.com/php/article.php?id=15718
 
Cue
REM GENRE Jazz
REM DATE 2004
REM DISCID 72119409
REM COMMENT "ExactAudioCopy v0.99pb4"
PERFORMER "Gonzalo Rubalcaba"
TITLE "Paseo"
FILE "01 - El Guerrillero.wav" WAVE
TRACK 01 AUDIO
TITLE "El Guerrillero"
PERFORMER "Gonzalo Rubalcaba"
INDEX 01 00:00:00
TRACK 02 AUDIO
TITLE "Preludio en Conga #1 _ Homage To Hilario"
PERFORMER "Gonzalo Rubalcaba"
INDEX 00 05:28:50
FILE "02 - Preludio en Conga #1 _ Homage To Hilario.wav" WAVE
INDEX 01 00:00:00
TRACK 03 AUDIO
TITLE "Bottoms Up"
PERFORMER "Gonzalo Rubalcaba"
INDEX 00 07:59:63
FILE "03 - Bottoms Up.wav" WAVE
INDEX 01 00:00:00
TRACK 04 AUDIO
TITLE "Sea Change"
PERFORMER "Gonzalo Rubalcaba"
INDEX 00 07:34:08
FILE "04 - Sea Change.wav" WAVE
INDEX 01 00:00:00
TRACK 05 AUDIO
TITLE "Paseo con Fula"
PERFORMER "Gonzalo Rubalcaba"
INDEX 00 06:51:60
FILE "05 - Paseo con Fula.wav" WAVE
INDEX 01 00:00:00
TRACK 06 AUDIO
TITLE "Meanwhile"
PERFORMER "Gonzalo Rubalcaba"
INDEX 00 10:20:05
FILE "06 - Meanwhile.wav" WAVE
INDEX 01 00:00:00
TRACK 07 AUDIO
TITLE "Santo Canto"
PERFORMER "Gonzalo Rubalcaba"
INDEX 00 09:43:35
FILE "07 - Santo Canto.wav" WAVE
INDEX 01 00:00:00
TRACK 08 AUDIO
TITLE "Quasar"
PERFORMER "Gonzalo Rubalcaba"
INDEX 00 07:55:58
FILE "08 - Quasar.wav" WAVE
INDEX 01 00:00:00
TRACK 09 AUDIO
TITLE "Los Bьyes"
PERFORMER "Gonzalo Rubalcaba"
INDEX 00 14:05:70
FILE "09 - Los Bьyes.wav" WAVE
INDEX 01 00:00:00
 
EAC log
Exact Audio Copy V0.99 prebeta 4 from 23. January 2008
EAC extraction logfile from 25. July 2010, 20:39
Gonzalo Rubalcaba / Paseo
Used drive : HL-DT-STDVD-RAM GH22NP20 Adapter: 0 ID: 0
Read mode : Secure
Utilize accurate stream : Yes
Defeat audio cache : Yes
Make use of C2 pointers : No
Read offset correction : 102
Overread into Lead-In and Lead-Out : No
Fill up missing offset samples with silence : Yes
Delete leading and trailing silent blocks : No
Null samples used in CRC calculations : Yes
Used interface : Installed external ASPI interface
Gap handling : Appended to previous track
Used output format : User Defined Encoder
Selected bitrate : 320 kBit/s
Quality : High
Add ID3 tag : No
Command line compressor : C:\Program Files\Exact Audio Copy\Flac\flac.exe
Additional command line options : -V -8 -T "artist=%a" -T "title=%t" -T "album=%g" -T "date=%y" -T "tracknumber=%n" -T "genre=%m" %s
TOC of the extracted CD
Track | Start | Length | Start sector | End sector
---------------------------------------------------------
1 | 0:00.00 | 5:31.37 | 0 | 24861
2 | 5:31.37 | 8:02.10 | 24862 | 61021
3 | 13:33.47 | 7:36.25 | 61022 | 95246
4 | 21:09.72 | 6:53.28 | 95247 | 126249
5 | 28:03.25 | 10:22.00 | 126250 | 172899
6 | 38:25.25 | 9:47.17 | 172900 | 216941
7 | 48:12.42 | 7:57.43 | 216942 | 252759
8 | 56:10.10 | 14:08.12 | 252760 | 316371
9 | 70:18.22 | 4:42.35 | 316372 | 337556
Track 1
Filename D:\music\Musicgate's rips\Gonzalo Rubalcaba - Paseo - 2004 (Blue Note)\01 - El Guerrillero.wav
Pre-gap length 0:00:02.00
Peak level 95.8 %
Track quality 100.0 %
Test CRC 88A5797A
Copy CRC 88A5797A
Accurately ripped (confidence 12) [9B4880C3]
Copy OK
Track 2
Filename D:\music\Musicgate's rips\Gonzalo Rubalcaba - Paseo - 2004 (Blue Note)\02 - Preludio en Conga #1 _ Homage To Hilario.wav
Pre-gap length 0:00:02.82
Peak level 98.9 %
Track quality 99.9 %
Test CRC C5F5BDE0
Copy CRC C5F5BDE0
Accurately ripped (confidence 12) [8CB53C54]
Copy OK
Track 3
Filename D:\music\Musicgate's rips\Gonzalo Rubalcaba - Paseo - 2004 (Blue Note)\03 - Bottoms Up.wav
Pre-gap length 0:00:02.29
Peak level 98.9 %
Track quality 100.0 %
Test CRC 80C8457C
Copy CRC 80C8457C
Accurately ripped (confidence 12) [1523D03D]
Copy OK
Track 4
Filename D:\music\Musicgate's rips\Gonzalo Rubalcaba - Paseo - 2004 (Blue Note)\04 - Sea Change.wav
Pre-gap length 0:00:02.22
Peak level 53.8 %
Track quality 100.0 %
Test CRC B493E9AF
Copy CRC B493E9AF
Accurately ripped (confidence 11) [0F5D4D6C]
Copy OK
Track 5
Filename D:\music\Musicgate's rips\Gonzalo Rubalcaba - Paseo - 2004 (Blue Note)\05 - Paseo con Fula.wav
Pre-gap length 0:00:01.57
Peak level 98.9 %
Track quality 100.0 %
Test CRC 087929CF
Copy CRC 087929CF
Accurately ripped (confidence 12) [D0DDA780]
Copy OK
Track 6
Filename D:\music\Musicgate's rips\Gonzalo Rubalcaba - Paseo - 2004 (Blue Note)\06 - Meanwhile.wav
Pre-gap length 0:00:01.93
Peak level 98.8 %
Track quality 100.0 %
Test CRC 8E0EA8EA
Copy CRC 8E0EA8EA
Accurately ripped (confidence 12) [39A2386D]
Copy OK
Track 7
Filename D:\music\Musicgate's rips\Gonzalo Rubalcaba - Paseo - 2004 (Blue Note)\07 - Santo Canto.wav
Pre-gap length 0:00:03.76
Peak level 98.8 %
Track quality 100.0 %
Test CRC ACC00E43
Copy CRC ACC00E43
Accurately ripped (confidence 12) [D3945D5A]
Copy OK
Track 8
Filename D:\music\Musicgate's rips\Gonzalo Rubalcaba - Paseo - 2004 (Blue Note)\08 - Quasar.wav
Pre-gap length 0:00:01.80
Peak level 98.9 %
Track quality 100.0 %
Test CRC C15252D1
Copy CRC C15252D1
Accurately ripped (confidence 12) [B8B64C35]
Copy OK
Track 9
Filename D:\music\Musicgate's rips\Gonzalo Rubalcaba - Paseo - 2004 (Blue Note)\09 - Los Bьyes.wav
Pre-gap length 0:00:02.22
Peak level 96.1 %
Track quality 100.0 %
Test CRC 0D8E4D04
Copy CRC 0D8E4D04
Accurately ripped (confidence 12) [DC46753F]
Copy OK
All tracks accurately ripped
No errors occurred
End of status report
 
Tau analyzer screenshoot
Я не сидирую все свои раздачи подолгу, только новые (до 3х первых сидов)
За своими раздачами не слежу, и старые топики не читаю - если нет сидов или раздача находится в архиве, пришлите письмо, и я вернусь
Предлагаю скачавшим максимально долго оставаться на раздаче - весь рейтинг будет ваш.
Заботьтесь о своем рейтинге - конвертируйте в мп3 и выкладывайте в соответствующем разделе
17:08
327
Нет комментариев. Ваш будет первым!