Поиск

(World Fusion, Ethno Jazz, Big Band) Mulatu Astatke - Mochilla Presents Timeless: Mulatu Astatke (feat. Azar Lawrence, Bennie Maupin, Phil Ranelin) - 2010, FLAC (tracks+.cue), lossless

(World Fusion, Ethno Jazz, Big Band) Mulatu Astatke - Mochilla Presents Timeless: Mulatu Astatke (feat. Azar Lawrence, Bennie Maupin, Phil Ranelin) - 2010, FLAC (tracks+.cue), lossless
Треклист:
Mulatu Astatke
Mochilla Presents Timeless: Mulatu Astatke Жанр: World Fusion, Ethnic Jazz, Big Band, Ethiopian Jazz, Latin Jazz
Год издания: 2010
Издатель (лейбл): Mochilla
Страна: Ethiopia/USA
Аудиокодек: FLAC (*.flac)
Тип рипа: tracks+.cue
Битрейт аудио: lossless
Продолжительность: 01:06:01
Источник (релизер): rickyhenderson
Наличие сканов в содержимом раздачи: нет
Треклист:
01. Yekermo Sew
02. The Radcliffe
03. I Faram Gami
04. Yekatit
05. Kasalefkut Hulu
06. Mulatu
07. Munaye
08. Yegelle Tezeta
09. Ebo Lala
youtube
 
Лог создания рипа
X Lossless Decoder version 20110821 (136.1)
XLD extraction logfile from 2011-10-09 21:43:33 -0700
Mulatu Astatke / Mochilla Presents Timeless: Mulatu Astatke
Used drive : MATSHITA DVD-R UJ-868 (revision KB19)
Ripper mode : XLD Secure Ripper
Disable audio cache : OK for the drive with a cache less than 1375KiB
Make use of C2 pointers : NO
Read offset correction : 102
Max retry count : 20
Gap status : Analyzed, Appended (except HTOA)
TOC of the extracted CD
Track | Start | Length | Start sector | End sector
---------------------------------------------------------
1 | 00:00:00 | 07:32:48 | 0 | 33947
2 | 07:32:48 | 08:29:63 | 33948 | 72185
3 | 16:02:36 | 07:45:15 | 72186 | 107075
4 | 23:47:51 | 07:15:31 | 107076 | 139731
5 | 31:03:07 | 08:05:19 | 139732 | 176125
6 | 39:08:26 | 07:10:34 | 176126 | 208409
7 | 46:18:60 | 07:47:27 | 208410 | 243461
8 | 54:06:12 | 05:24:07 | 243462 | 267768
9 | 59:30:19 | 06:31:43 | 267769 | 297136
AccurateRip Summary
Track 01 : OK (confidence 1)
Track 02 : OK (confidence 1)
Track 03 : OK (confidence 1)
Track 04 : OK (confidence 1)
Track 05 : OK (confidence 1)
Track 06 : OK (confidence 1)
Track 07 : NG
Track 08 : NG
Track 09 : NG
->6 track(s) accurately ripped, 3 track(s) not, 0 track(s) not found
All Tracks
Album gain : -7.80 dB
Peak : 0.976227
Statistics
Read error : 0
Jitter error (maybe fixed) : 0
Retry sector count : 0
Damaged sector count : 0
Track 01
Filename : /Users/andrewsouthard/FLAC RIPS/Mulatu Astatke - Mochilla Presents Timeless: Mulatu Astatke (2010) [FLAC]/01 Yekermo Sew.flac
Pre-gap length : 00:02:00
Track gain : -6.74 dB
Peak : 0.976166
CRC32 hash (test run) : 4B2CBBAF
CRC32 hash : 4B2CBBAF
CRC32 hash (skip zero) : 7FF93E67
AccurateRip signature : 1C5BA0C9
->Accurately ripped! (confidence 1)
Statistics
Read error : 0
Jitter error (maybe fixed) : 0
Retry sector count : 0
Damaged sector count : 0
Track 02
Filename : /Users/andrewsouthard/FLAC RIPS/Mulatu Astatke - Mochilla Presents Timeless: Mulatu Astatke (2010) [FLAC]/02 The Radcliffe.flac
Track gain : -4.09 dB
Peak : 0.976166
CRC32 hash (test run) : E197E547
CRC32 hash : E197E547
CRC32 hash (skip zero) : 0D4BD7AC
AccurateRip signature : BB3B01BB
->Accurately ripped! (confidence 1)
Statistics
Read error : 0
Jitter error (maybe fixed) : 0
Retry sector count : 0
Damaged sector count : 0
Track 03
Filename : /Users/andrewsouthard/FLAC RIPS/Mulatu Astatke - Mochilla Presents Timeless: Mulatu Astatke (2010) [FLAC]/03 I Faram Gami.flac
Track gain : -5.91 dB
Peak : 0.976135
CRC32 hash (test run) : FE5237B3
CRC32 hash : FE5237B3
CRC32 hash (skip zero) : DA6ACF7B
AccurateRip signature : A7671EFC
->Accurately ripped! (confidence 1)
Statistics
Read error : 0
Jitter error (maybe fixed) : 0
Retry sector count : 0
Damaged sector count : 0
Track 04
Filename : /Users/andrewsouthard/FLAC RIPS/Mulatu Astatke - Mochilla Presents Timeless: Mulatu Astatke (2010) [FLAC]/04 Yekatit.flac
Track gain : -7.85 dB
Peak : 0.976166
CRC32 hash (test run) : EA10750E
CRC32 hash : EA10750E
CRC32 hash (skip zero) : 5D82866C
AccurateRip signature : 8AD32CA2
->Accurately ripped! (confidence 1)
Statistics
Read error : 0
Jitter error (maybe fixed) : 0
Retry sector count : 0
Damaged sector count : 0
Track 05
Filename : /Users/andrewsouthard/FLAC RIPS/Mulatu Astatke - Mochilla Presents Timeless: Mulatu Astatke (2010) [FLAC]/05 Kasalefkut Hulu.flac
Track gain : -8.34 dB
Peak : 0.976166
CRC32 hash (test run) : B8736902
CRC32 hash : B8736902
CRC32 hash (skip zero) : 0757E6C0
AccurateRip signature : 530E7AE2
->Accurately ripped! (confidence 1)
Statistics
Read error : 0
Jitter error (maybe fixed) : 0
Retry sector count : 0
Damaged sector count : 0
Track 06
Filename : /Users/andrewsouthard/FLAC RIPS/Mulatu Astatke - Mochilla Presents Timeless: Mulatu Astatke (2010) [FLAC]/06 Mulatu.flac
Track gain : -7.92 dB
Peak : 0.976227
CRC32 hash (test run) : 27AB3FE9
CRC32 hash : 27AB3FE9
CRC32 hash (skip zero) : 030953DF
AccurateRip signature : BEC3869F
->Accurately ripped! (confidence 1)
Statistics
Read error : 0
Jitter error (maybe fixed) : 0
Retry sector count : 0
Damaged sector count : 0
Track 07
Filename : /Users/andrewsouthard/FLAC RIPS/Mulatu Astatke - Mochilla Presents Timeless: Mulatu Astatke (2010) [FLAC]/07 Munaye.flac
Pre-gap length : 00:01:65
Track gain : -7.94 dB
Peak : 0.976166
CRC32 hash (test run) : 1B47DD70
CRC32 hash : 1B47DD70
CRC32 hash (skip zero) : 80597863
AccurateRip signature : 36B0D038
->Rip may not be accurate.
Statistics
Read error : 0
Jitter error (maybe fixed) : 0
Retry sector count : 0
Damaged sector count : 0
Track 08
Filename : /Users/andrewsouthard/FLAC RIPS/Mulatu Astatke - Mochilla Presents Timeless: Mulatu Astatke (2010) [FLAC]/08 Yegelle Tezeta.flac
Pre-gap length : 00:01:51
Track gain : -8.33 dB
Peak : 0.976196
CRC32 hash (test run) : B2EE8DEC
CRC32 hash : B2EE8DEC
CRC32 hash (skip zero) : D8ECA623
AccurateRip signature : C400DFF4
->Rip may not be accurate.
Statistics
Read error : 0
Jitter error (maybe fixed) : 0
Retry sector count : 0
Damaged sector count : 0
Track 09
Filename : /Users/andrewsouthard/FLAC RIPS/Mulatu Astatke - Mochilla Presents Timeless: Mulatu Astatke (2010) [FLAC]/09 Ebo Lala.flac
Track gain : -9.04 dB
Peak : 0.976196
CRC32 hash (test run) : 3848BDDE
CRC32 hash : 3848BDDE
CRC32 hash (skip zero) : C670B3D8
AccurateRip signature : 1D4830E8
->Rip may not be accurate.
Statistics
Read error : 0
Jitter error (maybe fixed) : 0
Retry sector count : 0
Damaged sector count : 0
No errors occurred
End of status report
 
Содержание индексной карты (.CUE)
TITLE "Mochilla Presents Timeless: Mulatu Astatke"
PERFORMER "Mulatu Astatke"
REM GENRE "Jazz"
REM DATE "2010"
REM DISCNUMBER 1
REM TOTALDISCS 1
REM DISCID 830F7909
FILE "01 Yekermo Sew.wav" WAVE
TRACK 01 AUDIO
TITLE "Yekermo Sew"
INDEX 01 00:00:00
FILE "02 The Radcliffe.wav" WAVE
TRACK 02 AUDIO
TITLE "The Radcliffe"
INDEX 01 00:00:00
FILE "03 I Faram Gami.wav" WAVE
TRACK 03 AUDIO
TITLE "I Faram Gami"
INDEX 01 00:00:00
FILE "04 Yekatit.wav" WAVE
TRACK 04 AUDIO
TITLE "Yekatit"
INDEX 01 00:00:00
FILE "05 Kasalefkut Hulu.wav" WAVE
TRACK 05 AUDIO
TITLE "Kasalefkut Hulu"
INDEX 01 00:00:00
FILE "06 Mulatu.wav" WAVE
TRACK 06 AUDIO
TITLE "Mulatu"
INDEX 01 00:00:00
TRACK 07 AUDIO
TITLE "Munaye"
INDEX 00 07:08:44
FILE "07 Munaye.wav" WAVE
INDEX 01 00:00:00
TRACK 08 AUDIO
TITLE "Yegelle Tezeta"
INDEX 00 07:45:51
FILE "08 Yegelle Tezeta.wav" WAVE
INDEX 01 00:00:00
FILE "09 Ebo Lala.wav" WAVE
TRACK 09 AUDIO
TITLE "Ebo Lala"
SONGWRITER "Seifu Yohannes"
INDEX 01 00:00:00
 
Об альбоме (сборнике)
On February 1st, Ethiopian musician and inventor of Ethio-jazz, Mulatu Astatke, a giant in African music blessed the sold-out Luckman Fine Arts Complex with an amazing show. He shared the stage with veterans of the Los Angeles jazz scene Bennie Maupin, Azar Lawrence and Phil Ranelin. The performance is beautiful – showcasing many classics as well as some new material too. He’s currently touring Europe with the Heliocentrics and is still talking about the Timeless concert in Los Angeles.
mochilla.com
 
Состав
Mulatu Astatke - vibraphone, percussion
Miguel Atwood-Ferguson, viola
Tony Austin, trap kit
Brandon Coleman, organ, piano, electric piano
Cut Chemist, DJ
Quantic, DJ
Azar Lawrence, tenor saxophone
Bennie Maupin, bass clarinet, flute, soprano saxophone
Phil Ranelin, trombone
Joel Yennior, trombone
Todd Simon, flugelhorn, trumpet
Dan Ubick, guitar
Trevor Ware, electric bass & upright bass
Alan Lightner, percussion
Munyungo Jackson, percussion
09:34
618
Нет комментариев. Ваш будет первым!