Поиск

(Afro-Cuban Jazz, Latin Jazz) Mongo Santamaria - Our Man In Havana - 1993, FLAC (tracks+.cue), lossless

(Afro-Cuban Jazz, Latin Jazz) Mongo Santamaria - Our Man In Havana - 1993, FLAC (tracks+.cue), lossless
Треклист:
Mongo Santamaria – Our Man In Havana
Жанр: Afro-Cuban Jazz, Latin Jazz
Год издания: 1993
Издатель (лейбл): Fantasy
Номер по каталогу: 00025218242929
Аудиокодек: FLAC (*.flac)
Тип рипа: tracks+.cue
Битрейт аудио: lossless
Продолжительность: 74:25
Rip by Sarchiapone
Наличие сканов в содержимом раздачи: да
Треклист:
01. Jamaicuba (3:32)
02. Manila (4:47)
03. He Guapacha (4:13)
04. Cha Cha Rock (3:51)
05. Vengan Pollos (5:04)
06. Barandanga (3:20)
07. Linda Guajira (3:07)
08. Vamos A Gozar (2:39)
09. Miss Patti Cha Cha (4:20)
10. Viva La Felicidad (2:35)
11. Tele Mina for Chango (3:04)
12. Olla De For Olla (3:52)
13. Yemaya Olodo For Olla (3:41)
14. Yeye-o for Ochun (4:14)
15. Wolenche For Chango (2:48)
16. Aqua Limpia (3:41)
17. Ochun Mene (4:15)
18. Mexico (Guaguanco) (3:24)
19. Manana Son Manana (4:11)
20. Complicaciones (3:48)
 
 
Лог создания рипа
Exact Audio Copy V0.99 prebeta 5 from 4. May 2009
EAC extraction logfile from 17. December 2009, 1:33
Mongo Santamaria / Our Man In Havana
Used drive : PLEXTOR CD-R PREMIUM2 Adapter: 1 ID: 1
Read mode : Secure
Utilize accurate stream : Yes
Defeat audio cache : Yes
Make use of C2 pointers : No
Read offset correction : 30
Overread into Lead-In and Lead-Out : No
Fill up missing offset samples with silence : Yes
Delete leading and trailing silent blocks : No
Null samples used in CRC calculations : Yes
Used interface : Installed external ASPI interface
Gap handling : Appended to previous track
Used output format : User Defined Encoder
Selected bitrate : 32 kBit/s
Quality : High
Add ID3 tag : No
Command line compressor : C:\Programmi\FLAC\flac.exe
Additional command line options : -8 -V -T "ARTIST=%a" -T "TITLE=%t" -T "ALBUM=%g" -T "DATE=%y" -T "TRACKNUMBER=%n" -T "GENRE=%m" -T "COMMENT=EAC FLAC -8" %s
TOC of the extracted CD
Track | Start | Length | Start sector | End sector
---------------------------------------------------------
1 | 0:00.00 | 3:31.45 | 0 | 15869
2 | 3:31.45 | 4:46.52 | 15870 | 37371
3 | 8:18.22 | 4:12.38 | 37372 | 56309
4 | 12:30.60 | 3:51.05 | 56310 | 73639
5 | 16:21.65 | 5:04.20 | 73640 | 96459
6 | 21:26.10 | 3:19.50 | 96460 | 111434
7 | 24:45.60 | 3:07.37 | 111435 | 125496
8 | 27:53.22 | 2:38.50 | 125497 | 137396
9 | 30:31.72 | 4:19.70 | 137397 | 156891
10 | 34:51.67 | 2:34.45 | 156892 | 168486
11 | 37:26.37 | 3:03.40 | 168487 | 182251
12 | 40:30.02 | 3:52.28 | 182252 | 199679
13 | 44:22.30 | 3:41.30 | 199680 | 216284
14 | 48:03.60 | 4:14.07 | 216285 | 235341
15 | 52:17.67 | 2:48.05 | 235342 | 247946
16 | 55:05.72 | 3:40.70 | 247947 | 264516
17 | 58:46.67 | 4:15.00 | 264517 | 283641
18 | 63:01.67 | 3:24.23 | 283642 | 298964
19 | 66:26.15 | 4:10.55 | 298965 | 317769
20 | 70:36.70 | 3:48.22 | 317770 | 334891
Track 1
Filename D:\My Rip\01 - Jamaicuba.wav
Pre-gap length 0:00:02.00
Peak level 99.7 %
Track quality 100.0 %
Test CRC DD047D2E
Copy CRC DD047D2E
Cannot be verified as accurate (confidence 2) [C24675BF], AccurateRip returned [FAAE100E]
Copy OK
Track 2
Filename D:\My Rip\02 - Manila.wav
Pre-gap length 0:00:03.50
Peak level 86.2 %
Track quality 100.0 %
Test CRC 3691A2C5
Copy CRC 3691A2C5
Cannot be verified as accurate (confidence 2) [7DFFB337], AccurateRip returned [A7969947]
Copy OK
Track 3
Filename D:\My Rip\03 - He Guapacha.wav
Pre-gap length 0:00:03.42
Peak level 73.4 %
Track quality 100.0 %
Test CRC D9A837CC
Copy CRC D9A837CC
Cannot be verified as accurate (confidence 2) [369820A6], AccurateRip returned [D239918A]
Copy OK
Track 4
Filename D:\My Rip\04 - Cha Cha Rock.wav
Pre-gap length 0:00:03.46
Peak level 90.5 %
Track quality 100.0 %
Test CRC B3A5DA8D
Copy CRC B3A5DA8D
Cannot be verified as accurate (confidence 2) [F39C733C], AccurateRip returned [F41D919F]
Copy OK
Track 5
Filename D:\My Rip\05 - Vengan Pollos.wav
Pre-gap length 0:00:03.37
Peak level 78.8 %
Track quality 100.0 %
Test CRC 1594FE51
Copy CRC 1594FE51
Cannot be verified as accurate (confidence 2) [43CAEC7E], AccurateRip returned [1F3CF3B0]
Copy OK
Track 6
Filename D:\My Rip\06 - Barandanga.wav
Pre-gap length 0:00:04.57
Peak level 99.6 %
Track quality 100.0 %
Test CRC F71D6696
Copy CRC F71D6696
Cannot be verified as accurate (confidence 2) [85778666], AccurateRip returned [D761B7FF]
Copy OK
Track 7
Filename D:\My Rip\07 - Linda Guajira.wav
Pre-gap length 0:00:02.97
Peak level 97.2 %
Track quality 100.0 %
Test CRC 2EAA9E96
Copy CRC 2EAA9E96
Cannot be verified as accurate (confidence 2) [7CEA7A06], AccurateRip returned [B369D6A3]
Copy OK
Track 8
Filename D:\My Rip\08 - Vamos A Gozar.wav
Pre-gap length 0:00:03.69
Peak level 91.7 %
Track quality 100.0 %
Test CRC 49E5D26A
Copy CRC 49E5D26A
Cannot be verified as accurate (confidence 2) [E0AF6648], AccurateRip returned [C416EDB1]
Copy OK
Track 9
Filename D:\My Rip\09 - Miss Patti Cha Cha.wav
Pre-gap length 0:00:03.46
Peak level 88.5 %
Track quality 100.0 %
Test CRC 1FD9665B
Copy CRC 1FD9665B
Cannot be verified as accurate (confidence 2) [31801AE2], AccurateRip returned [B8B96EC9]
Copy OK
Track 10
Filename D:\My Rip\10 - Viva La Felicidad.wav
Pre-gap length 0:00:03.13
Peak level 99.6 %
Track quality 100.0 %
Test CRC EA390DB7
Copy CRC EA390DB7
Cannot be verified as accurate (confidence 2) [9A4CF7AF], AccurateRip returned [12B92B2F]
Copy OK
Track 11
Filename D:\My Rip\11 - Tele Mina for Chango.wav
Pre-gap length 0:00:03.22
Peak level 72.8 %
Track quality 100.0 %
Test CRC F2DA6088
Copy CRC F2DA6088
Cannot be verified as accurate (confidence 2) [3D77C537], AccurateRip returned [6BB606AF]
Copy OK
Track 12
Filename D:\My Rip\12 - Olla De For Olla.wav
Pre-gap length 0:00:03.76
Peak level 88.7 %
Track quality 100.0 %
Test CRC 79E2F2A1
Copy CRC 79E2F2A1
Cannot be verified as accurate (confidence 2) [0D8B24AE], AccurateRip returned [46CF3770]
Copy OK
Track 13
Filename D:\My Rip\13 - Yemaya Olodo For Olla.wav
Pre-gap length 0:00:03.60
Peak level 77.3 %
Track quality 100.0 %
Test CRC DF391ABC
Copy CRC DF391ABC
Cannot be verified as accurate (confidence 2) [06C01372], AccurateRip returned [2133E7C1]
Copy OK
Track 14
Filename D:\My Rip\14 - Yeye-o for Ochun.wav
Pre-gap length 0:00:03.77
Peak level 78.4 %
Track quality 100.0 %
Test CRC 168BE6AF
Copy CRC 168BE6AF
Cannot be verified as accurate (confidence 2) [E14E9AFB], AccurateRip returned [DB926CDF]
Copy OK
Track 15
Filename D:\My Rip\15 - Wolenche For Chango.wav
Pre-gap length 0:00:03.53
Peak level 79.5 %
Track quality 100.0 %
Test CRC DC6FE7E7
Copy CRC DC6FE7E7
Cannot be verified as accurate (confidence 2) [72A0F0B2], AccurateRip returned [DBCD5BCB]
Copy OK
Track 16
Filename D:\My Rip\16 - Aqua Limpia.wav
Pre-gap length 0:00:02.60
Peak level 78.7 %
Track quality 100.0 %
Test CRC DB30FFE5
Copy CRC DB30FFE5
Cannot be verified as accurate (confidence 2) [ABFA50E3], AccurateRip returned [077C7C50]
Copy OK
Track 17
Filename D:\My Rip\17 - Ochun Mene.wav
Pre-gap length 0:00:03.20
Peak level 92.5 %
Track quality 99.9 %
Test CRC FAAD9180
Copy CRC FAAD9180
Cannot be verified as accurate (confidence 2) [2B621162], AccurateRip returned [3FE488F6]
Copy OK
Track 18
Filename D:\My Rip\18 - Mexico (Guaguanco).wav
Pre-gap length 0:00:03.66
Peak level 81.9 %
Track quality 100.0 %
Test CRC CADAE422
Copy CRC CADAE422
Cannot be verified as accurate (confidence 2) [394A3681], AccurateRip returned [F160262E]
Copy OK
Track 19
Filename D:\My Rip\19 - Manana Son Manana.wav
Pre-gap length 0:00:03.46
Peak level 89.1 %
Track quality 99.9 %
Test CRC D0127228
Copy CRC D0127228
Cannot be verified as accurate (confidence 2) [44541F65], AccurateRip returned [152E95BD]
Copy OK
Track 20
Filename D:\My Rip\20 - Complicaciones.wav
Pre-gap length 0:00:03.97
Peak level 71.7 %
Track quality 100.0 %
Test CRC FE118E96
Copy CRC FE118E96
Cannot be verified as accurate (confidence 2) [CB860B12], AccurateRip returned [41ADDDE6]
Copy OK
No tracks could be verified as accurate
You may have a different pressing from the one(s) in the database
No errors occurred
End of status report
 
Содержание индексной карты (.CUE)
REM GENRE Latin
REM DATE 1993
REM DISCID 3C117114
REM COMMENT "ExactAudioCopy v0.99pb5"
PERFORMER "Mongo Santamaria"
TITLE "Our Man In Havana"
FILE "01 - Jamaicuba.flac" WAVE
TRACK 01 AUDIO
TITLE "Jamaicuba"
PERFORMER "Mongo Santamaria"
INDEX 01 00:00:00
TRACK 02 AUDIO
TITLE "Manila"
PERFORMER "Mongo Santamaria"
INDEX 00 03:28:07
FILE "02 - Manila.flac" WAVE
INDEX 01 00:00:00
TRACK 03 AUDIO
TITLE "He Guapacha"
PERFORMER "Mongo Santamaria"
INDEX 00 04:43:20
FILE "03 - He Guapacha.flac" WAVE
INDEX 01 00:00:00
TRACK 04 AUDIO
TITLE "Cha Cha Rock"
PERFORMER "Mongo Santamaria"
INDEX 00 04:09:03
FILE "04 - Cha Cha Rock.flac" WAVE
INDEX 01 00:00:00
TRACK 05 AUDIO
TITLE "Vengan Pollos"
PERFORMER "Mongo Santamaria"
INDEX 00 03:47:52
FILE "05 - Vengan Pollos.flac" WAVE
INDEX 01 00:00:00
TRACK 06 AUDIO
TITLE "Barandanga"
PERFORMER "Mongo Santamaria"
INDEX 00 04:59:52
FILE "06 - Barandanga.flac" WAVE
INDEX 01 00:00:00
TRACK 07 AUDIO
TITLE "Linda Guajira"
PERFORMER "Mongo Santamaria"
INDEX 00 03:16:52
FILE "07 - Linda Guajira.flac" WAVE
INDEX 01 00:00:00
TRACK 08 AUDIO
TITLE "Vamos A Gozar"
PERFORMER "Mongo Santamaria"
INDEX 00 03:03:60
FILE "08 - Vamos A Gozar.flac" WAVE
INDEX 01 00:00:00
TRACK 09 AUDIO
TITLE "Miss Patti Cha Cha"
PERFORMER "Mongo Santamaria"
INDEX 00 02:35:15
FILE "09 - Miss Patti Cha Cha.flac" WAVE
INDEX 01 00:00:00
TRACK 10 AUDIO
TITLE "Viva La Felicidad"
PERFORMER "Mongo Santamaria"
INDEX 00 04:16:60
FILE "10 - Viva La Felicidad.flac" WAVE
INDEX 01 00:00:00
TRACK 11 AUDIO
TITLE "Tele Mina for Chango"
PERFORMER "Mongo Santamaria"
INDEX 00 02:31:28
FILE "11 - Tele Mina for Chango.flac" WAVE
INDEX 01 00:00:00
TRACK 12 AUDIO
TITLE "Olla De For Olla"
PERFORMER "Mongo Santamaria"
INDEX 00 02:59:58
FILE "12 - Olla De For Olla.flac" WAVE
INDEX 01 00:00:00
TRACK 13 AUDIO
TITLE "Yemaya Olodo For Olla"
PERFORMER "Mongo Santamaria"
INDEX 00 03:48:58
FILE "13 - Yemaya Olodo For Olla.flac" WAVE
INDEX 01 00:00:00
TRACK 14 AUDIO
TITLE "Yeye-o for Ochun"
PERFORMER "Mongo Santamaria"
INDEX 00 03:37:47
FILE "14 - Yeye-o for Ochun.flac" WAVE
INDEX 01 00:00:00
TRACK 15 AUDIO
TITLE "Wolenche For Chango"
PERFORMER "Mongo Santamaria"
INDEX 00 04:10:42
FILE "15 - Wolenche For Chango.flac" WAVE
INDEX 01 00:00:00
TRACK 16 AUDIO
TITLE "Aqua Limpia"
PERFORMER "Mongo Santamaria"
INDEX 00 02:45:35
FILE "16 - Aqua Limpia.flac" WAVE
INDEX 01 00:00:00
TRACK 17 AUDIO
TITLE "Ochun Mene"
PERFORMER "Mongo Santamaria"
INDEX 00 03:37:55
FILE "17 - Ochun Mene.flac" WAVE
INDEX 01 00:00:00
TRACK 18 AUDIO
TITLE "Mexico (Guaguanco)"
PERFORMER "Mongo Santamaria"
INDEX 00 04:11:25
FILE "18 - Mexico (Guaguanco).flac" WAVE
INDEX 01 00:00:00
TRACK 19 AUDIO
TITLE "Manana Son Manana"
PERFORMER "Mongo Santamaria"
INDEX 00 03:20:63
FILE "19 - Manana Son Manana.flac" WAVE
INDEX 01 00:00:00
TRACK 20 AUDIO
TITLE "Complicaciones"
PERFORMER "Mongo Santamaria"
INDEX 00 04:06:57
FILE "20 - Complicaciones.flac" WAVE
INDEX 01 00:00:00
09:33
334
Нет комментариев. Ваш будет первым!