Поиск

(World Fusion, Ethnic, Vocal Jazz) Savina Yannatou - Virgin Maries of the world - 1999, FLAC (tracks+.cue), lossless

(World Fusion, Ethnic, Vocal Jazz) Savina Yannatou - Virgin Maries of the world - 1999, FLAC (tracks+.cue), lossless
Savina Yannatou - Virgin Maries of the world
Жанр: World Fusion , Ethnic , Vocal Jazz
Страна-производитель диска: Greece
Год издания диска: 1999
Издатель (лейбл): Lyra
Номер по каталогу: ML 4937
Страна: Greece
Аудиокодек: FLAC (*.flac)
Тип рипа: tracks+.cue
Битрейт аудио: lossless
Продолжительность: 01:01:30
Источник (релизер): What CD
Наличие сканов в содержимом раздачи: да
 
Tracklist
1. Ah Mon Dii
Extract from the Mass 'Missa Antilla' of the Caribbean (Guadalupe) / Lola Martin
2. Ulamentu Di Ghjiesu
Popular lamenting song of the Holy Week (Corsica) / Roch mambrini - Ferdinand Acquaviva, Antoine Casalonga
3. Madonna De La Grazia
Popular hymn to the Virgin (Southern Italy) / Unknown Italian Renaissance Composer / Arr.: Kostas Vomvolos
4. Vorskan Ahper
Lament of the Mother For the Dead Son, Popular Song (Armenia) / K. Arsdamian - Avedic Isahagian
5. Armenian Instrumental
Composition: Haris Lamprakis
6. Planctus Ante Nescia
Lament Of the Virgin from the medieval manuscript Carmina Burana (Traditional Medieval 9th -11th c.) / Arr.: Kostas Vomvolos
7. Como Poden Per Sas Culpas
Cantigas de Santa Maria, coll. By Alfonse the Wise (Traditional Medieval, Spain, 13th century) / Arr.: Kostas Vomvolos
8. Simeron Mavros Ouranos
Lamentation of the Virgin Mary (Traditional, Central Greece) / Arr.: Kostas Vomvolos
9. Christo Jesus (La Cruz)
From 'Evangelio Criollo' (Traditional, Argentina) / R. Caldavella - H. Grane/L. Saavedra - H. Musiera
10. Agnus Dei
Extract From The African Popular Mass 'Missa Luba' (Congo) / Arr.: Haris Lamprakis
11. Saeta Por Carcelera
Antonio Murciano (Spain)
12. Tara At Amama Salibi
Hymn to the Virgin from the Maronite Christian (Traditional, Libanon) / Arr.: Haris Lamprakis
13. Rosa Das Rosas
Song to the Virgin, from the collection of Alfonse the Wise (Spain, 13th century) / Arr.: Kostas Vomvolos
14. Archontes Afougraste Mou
Dirge of the Virgin (Traditional, Cyprus) / Arr.: Kostas Vomvolos
15. Ave Maria Deus Ti Salvet Maria
Sacred hymn to the Virgin (Traditional, 13th Century, Sardinia) / Arr.: Haris Lamprakis
16. Passiuna
Carols from Apulia Salento (Traditional, Southern Italy) / Arr.: Haris Lamprakis
17. Virgjer Odhijitrie
Popular religious hymn to the Virgin Leader, protector of the Arvanites (Albanian speaking) area of Southern Italy and Sicily, with references to the struggle of their ancestors for the preservation of their faith (Traditional, Southern Italy) / Arr.: Haris Lamprakis
18. O, glyki mou Ear
From the Byzantine enconiums of the Good Friday Lament (Greek Orthodox church - 'Epitaphios' service) / Arr.: Kostas Vomvolos
 
Лог создания рипа
Exact Audio Copy V1.0 beta 1 from 15. November 2010
EAC extraction logfile from 13. January 2011, 0:54
Savina Yannatou / Virgin Maries of the world
Used drive : Optiarc DVD RW AD-7200A Adapter: 3 ID: 0
Read mode : Secure
Utilize accurate stream : Yes
Defeat audio cache : Yes
Make use of C2 pointers : No
Read offset correction : 48
Overread into Lead-In and Lead-Out : No
Fill up missing offset samples with silence : Yes
Delete leading and trailing silent blocks : No
Null samples used in CRC calculations : Yes
Used interface : Installed external ASPI interface
Gap handling : Appended to previous track
Used output format : User Defined Encoder
Selected bitrate : 896 kBit/s
Quality : High
Add ID3 tag : No
Command line compressor : C:\Program Files\Exact Audio Copy\Flac\flac.exe
Additional command line options : -8 -V -T "ARTIST=%a" -T "TITLE=%t" -T "ALBUM=%g" -T "DATE=%y" -T "TRACKNUMBER=%n" -T "TOTALTRACKS=%x" -T "GENRE=%m" -T "ALBUMARTIST=%v" -T "ALBUM ARTIST=%v" -T "COMMENT=EAC Secure Mode,Test&Copy,AccurateRip,FLAC -8" %s
TOC of the extracted CD
Track | Start | Length | Start sector | End sector
---------------------------------------------------------
1 | 0:00.00 | 6:00.28 | 0 | 27027
2 | 6:00.28 | 3:55.19 | 27028 | 44671
3 | 9:55.47 | 3:15.57 | 44672 | 59353
4 | 13:11.29 | 2:50.61 | 59354 | 72164
5 | 16:02.15 | 2:41.67 | 72165 | 84306
6 | 18:44.07 | 4:41.11 | 84307 | 105392
7 | 23:25.18 | 2:34.26 | 105393 | 116968
8 | 25:59.44 | 4:52.18 | 116969 | 138886
9 | 30:51.62 | 2:26.41 | 138887 | 149877
10 | 33:18.28 | 3:26.62 | 149878 | 165389
11 | 36:45.15 | 2:21.67 | 165390 | 176031
12 | 39:07.07 | 4:01.48 | 176032 | 194154
13 | 43:08.55 | 3:39.36 | 194155 | 210615
14 | 46:48.16 | 5:08.56 | 210616 | 233771
15 | 51:56.72 | 2:56.72 | 233772 | 247043
16 | 54:53.69 | 2:35.70 | 247044 | 258738
17 | 57:29.64 | 2:42.04 | 258739 | 270892
18 | 60:11.68 | 1:18.25 | 270893 | 276767
Track 1
Filename E:\Rips\01 - Ah mon Dii.wav
Pre-gap length 0:00:02.00
Peak level 100.0 %
Extraction speed 2.5 X
Track quality 100.0 %
Test CRC 868AA871
Copy CRC 868AA871
Accurately ripped (confidence 3) [B857C0CC]
Copy OK
Track 2
Filename E:\Rips\02 - U lamentu di Ghjiesu.wav
Pre-gap length 0:00:02.00
Peak level 89.8 %
Extraction speed 2.7 X
Track quality 100.0 %
Test CRC 8045A4F6
Copy CRC 8045A4F6
Accurately ripped (confidence 3) [D2615026]
Copy OK
Track 3
Filename E:\Rips\03 - Madonna de la grazia.wav
Pre-gap length 0:00:02.00
Peak level 99.2 %
Extraction speed 2.7 X
Track quality 100.0 %
Test CRC 83A20F86
Copy CRC 83A20F86
Accurately ripped (confidence 3) [579FEC0C]
Copy OK
Track 4
Filename E:\Rips\04 - Vorskan Ahper.wav
Pre-gap length 0:00:02.00
Peak level 47.9 %
Extraction speed 2.9 X
Track quality 100.0 %
Test CRC B5A57FA6
Copy CRC B5A57FA6
Accurately ripped (confidence 3) [A263F385]
Copy OK
Track 5
Filename E:\Rips\05 - Organiko Armeniko.wav
Peak level 95.4 %
Extraction speed 2.9 X
Track quality 100.0 %
Test CRC FC0D0957
Copy CRC FC0D0957
Accurately ripped (confidence 3) [5E8A93CA]
Copy OK
Track 6
Filename E:\Rips\06 - Planctus ante nescia.wav
Pre-gap length 0:00:02.00
Peak level 98.0 %
Extraction speed 3.4 X
Track quality 100.0 %
Test CRC D5F3DE70
Copy CRC D5F3DE70
Accurately ripped (confidence 3) [4AC657BC]
Copy OK
Track 7
Filename E:\Rips\07 - Como poden per sas culpas.wav
Pre-gap length 0:00:02.00
Peak level 95.8 %
Extraction speed 3.2 X
Track quality 100.0 %
Test CRC 3C2E623D
Copy CRC 3C2E623D
Accurately ripped (confidence 3) [B01BD1E5]
Copy OK
Track 8
Filename E:\Rips\08 - Simeron mavros ouranos.wav
Pre-gap length 0:00:02.00
Peak level 99.4 %
Extraction speed 3.4 X
Track quality 99.9 %
Test CRC BA162EF5
Copy CRC BA162EF5
Accurately ripped (confidence 3) [66E41291]
Copy OK
Track 9
Filename E:\Rips\09 - Christo Jesus (La cruz).wav
Pre-gap length 0:00:02.00
Peak level 91.9 %
Extraction speed 3.5 X
Track quality 100.0 %
Test CRC 6393E5A7
Copy CRC 6393E5A7
Accurately ripped (confidence 3) [6EB53BFE]
Copy OK
Track 10
Filename E:\Rips\10 - Agnus Dei.wav
Pre-gap length 0:00:02.00
Peak level 95.3 %
Extraction speed 3.8 X
Track quality 100.0 %
Test CRC D6C29833
Copy CRC D6C29833
Accurately ripped (confidence 3) [34BC3A66]
Copy OK
Track 11
Filename E:\Rips\11 - Saeta por carcelera.wav
Pre-gap length 0:00:02.00
Peak level 96.7 %
Extraction speed 3.7 X
Track quality 100.0 %
Test CRC 6083B837
Copy CRC 6083B837
Accurately ripped (confidence 3) [6CCD55F4]
Copy OK
Track 12
Filename E:\Rips\12 - Tara at amama salibi.wav
Pre-gap length 0:00:02.00
Peak level 98.1 %
Extraction speed 4.1 X
Track quality 100.0 %
Test CRC DFA6BE7F
Copy CRC DFA6BE7F
Accurately ripped (confidence 3) [B18EF781]
Copy OK
Track 13
Filename E:\Rips\13 - Rosa das Rosas.wav
Pre-gap length 0:00:02.00
Peak level 90.9 %
Extraction speed 3.7 X
Track quality 99.9 %
Test CRC D99F3CBB
Copy CRC D99F3CBB
Accurately ripped (confidence 3) [7058C6F8]
Copy OK
Track 14
Filename E:\Rips\14 - Archontes afougraste mou.wav
Pre-gap length 0:00:02.00
Peak level 100.0 %
Extraction speed 4.6 X
Track quality 100.0 %
Test CRC 3D87D9BC
Copy CRC 3D87D9BC
Accurately ripped (confidence 3) [1C48E018]
Copy OK
Track 15
Filename E:\Rips\15 - Ave Maria, Deus ti salvet Maria.wav
Pre-gap length 0:00:02.00
Peak level 86.1 %
Extraction speed 3.7 X
Track quality 99.9 %
Test CRC 050246E5
Copy CRC 050246E5
Accurately ripped (confidence 3) [2D017365]
Copy OK
Track 16
Filename E:\Rips\16 - Passiuna.wav
Pre-gap length 0:00:02.00
Peak level 98.5 %
Extraction speed 4.3 X
Track quality 100.0 %
Test CRC DB58A5F6
Copy CRC DB58A5F6
Accurately ripped (confidence 3) [6BF1D307]
Copy OK
Track 17
Filename E:\Rips\17 - Virgjer Odhijitrie.wav
Pre-gap length 0:00:02.00
Peak level 98.1 %
Extraction speed 3.7 X
Track quality 99.9 %
Test CRC C996C8E2
Copy CRC C996C8E2
Accurately ripped (confidence 3) [01282F15]
Copy OK
Track 18
Filename E:\Rips\18 - O, glyki mou ear.wav
Pre-gap length 0:00:02.00
Peak level 90.1 %
Extraction speed 3.7 X
Track quality 100.0 %
Test CRC 19281811
Copy CRC 19281811
Accurately ripped (confidence 3) [00C9E503]
Copy OK
All tracks accurately ripped
No errors occurred
End of status report
==== Log checksum B2A96B4D49C5C025B53791AAF9759EA8ED484103E9CF8624824BC70EF9E4D2D1 ====
 
Содержание индексной карты (.CUE)
REM GENRE Folklore
REM DATE 1999
REM DISCID F00E6A12
REM COMMENT "ExactAudioCopy v1.0b1"
PERFORMER "Savina Yannatou"
TITLE "Virgin Maries of the world"
FILE "01 - Ah mon Dii.wav" WAVE
TRACK 01 AUDIO
TITLE "Ah mon Dii"
PERFORMER "Savina Yannatou"
INDEX 01 00:00:00
TRACK 02 AUDIO
TITLE "U lamentu di Ghjiesu"
PERFORMER "Savina Yannatou"
INDEX 00 05:58:28
FILE "02 - U lamentu di Ghjiesu.wav" WAVE
INDEX 01 00:00:00
TRACK 03 AUDIO
TITLE "Madonna de la grazia"
PERFORMER "Savina Yannatou"
INDEX 00 03:53:19
FILE "03 - Madonna de la grazia.wav" WAVE
INDEX 01 00:00:00
TRACK 04 AUDIO
TITLE "Vorskan Ahper"
PERFORMER "Savina Yannatou"
INDEX 00 03:13:57
FILE "04 - Vorskan Ahper.wav" WAVE
INDEX 01 00:00:00
FILE "05 - Organiko Armeniko.wav" WAVE
TRACK 05 AUDIO
TITLE "Organiko Armeniko"
PERFORMER "Savina Yannatou"
INDEX 01 00:00:00
TRACK 06 AUDIO
TITLE "Planctus ante nescia"
PERFORMER "Savina Yannatou"
INDEX 00 02:39:67
FILE "06 - Planctus ante nescia.wav" WAVE
INDEX 01 00:00:00
TRACK 07 AUDIO
TITLE "Como poden per sas culpas"
PERFORMER "Savina Yannatou"
INDEX 00 04:39:11
FILE "07 - Como poden per sas culpas.wav" WAVE
INDEX 01 00:00:00
TRACK 08 AUDIO
TITLE "Simeron mavros ouranos"
PERFORMER "Savina Yannatou"
INDEX 00 02:32:26
FILE "08 - Simeron mavros ouranos.wav" WAVE
INDEX 01 00:00:00
TRACK 09 AUDIO
TITLE "Christo Jesus (La cruz)"
PERFORMER "Savina Yannatou"
INDEX 00 04:50:18
FILE "09 - Christo Jesus (La cruz).wav" WAVE
INDEX 01 00:00:00
TRACK 10 AUDIO
TITLE "Agnus Dei"
PERFORMER "Savina Yannatou"
INDEX 00 02:24:41
FILE "10 - Agnus Dei.wav" WAVE
INDEX 01 00:00:00
TRACK 11 AUDIO
TITLE "Saeta por carcelera"
PERFORMER "Savina Yannatou"
INDEX 00 03:24:62
FILE "11 - Saeta por carcelera.wav" WAVE
INDEX 01 00:00:00
TRACK 12 AUDIO
TITLE "Tara at amama salibi"
PERFORMER "Savina Yannatou"
INDEX 00 02:19:67
FILE "12 - Tara at amama salibi.wav" WAVE
INDEX 01 00:00:00
TRACK 13 AUDIO
TITLE "Rosa das Rosas"
PERFORMER "Savina Yannatou"
INDEX 00 03:59:48
FILE "13 - Rosa das Rosas.wav" WAVE
INDEX 01 00:00:00
TRACK 14 AUDIO
TITLE "Archontes afougraste mou"
PERFORMER "Savina Yannatou"
INDEX 00 03:37:36
FILE "14 - Archontes afougraste mou.wav" WAVE
INDEX 01 00:00:00
TRACK 15 AUDIO
TITLE "Ave Maria, Deus ti salvet Maria"
PERFORMER "Savina Yannatou"
INDEX 00 05:06:56
FILE "15 - Ave Maria, Deus ti salvet Maria.wav" WAVE
INDEX 01 00:00:00
TRACK 16 AUDIO
TITLE "Passiuna"
PERFORMER "Savina Yannatou"
INDEX 00 02:54:72
FILE "16 - Passiuna.wav" WAVE
INDEX 01 00:00:00
TRACK 17 AUDIO
TITLE "Virgjer Odhijitrie"
PERFORMER "Savina Yannatou"
INDEX 00 02:33:70
FILE "17 - Virgjer Odhijitrie.wav" WAVE
INDEX 01 00:00:00
TRACK 18 AUDIO
TITLE "O, glyki mou ear"
PERFORMER "Savina Yannatou"
INDEX 00 02:40:04
FILE "18 - O, glyki mou ear.wav" WAVE
INDEX 01 00:00:00
00:41
403
Нет комментариев. Ваш будет первым!