Поиск

(Cool, Bossa Nova, Big Band) Quincy Jones & Stan Getz - Big Bossa Nova Band with Quincy Jones & Stan Getz - 2000, APE (image+.cue), lossless

(Cool, Bossa Nova, Big Band) Quincy Jones & Stan Getz - Big Bossa Nova Band with Quincy Jones & Stan Getz - 2000, APE (image+.cue), lossless
Треклист:
Quincy Jones & Stan Getz - Big Bossa Nova Band with Quincy Jones & Stan Getz
Жанр: Cool, Bossa Nova, Big Band
Страна-производитель диска: Россия
Год издания диска: 2000
Издатель (лейбл): ЗАО "Витаком"
Аудиокодек: APE (*.ape)
Тип рипа: image+.cue
Битрейт аудио: lossless
Продолжительность: 01:08:29
Источник (релизер): Рип с диска.
Наличие сканов в содержимом раздачи: да
Треклист:
01. Soul Bossa Nova
02. Boogie stop Shuffle
03. Desafinado
04. Manha de Carnaval
05. Se E Tarde Me Pardoa
06. On The Street Where You Live
07. Samba de Una Nota So
08. Lalo Bossa Nova
09. Serenata
10. Chega de Saudade
11. A Taste Of Honey (previously unissued)
12. Manha de Carnaval
13. Balanco No Samba
14. Melancolico
15. Entre Amigos
16. Chega de Saudade
17. Noite Triste
18. Samba De Uma Nota So
19. Bim Bom
 
Лог создания рипа
Exact Audio Copy V1.0 beta 3 from 29. August 2011
Отчёт EAC об извлечении, выполненном 30. октября 2011, 15:55
Quincy Jones & Stan Getz / Big Bossa Nova Band with Quincy Jones & Stan Getz
Дисковод: Optiarc DVD RW AD-5200A Adapter: 0 ID: 1
Режим чтения : Достоверность
Использование точного потока : Да
Отключение кэша аудио : Да
Использование указателей C2 : Нет
Коррекция смещения при чтении : 48
Способность читать области Lead-in и Lead-out : Нет
Заполнение пропущенных сэмплов тишиной : Да
Удаление блоков с тишиной в начале и конце : Нет
При вычислениях CRC использовались нулевые сэмплы : Да
Интерфейс : Установленный внешний ASPI-интерфейс
Выходной формат : Пользовательский кодировщик
Выбранный битрейт : 128 kBit/s
Качество : Высокий
Добавление ID3-тега : Нет
Утилита сжатия : C:\Program Files\Monkey's Audio\MAC.exe
Дополнительные параметры : %source% %dest% -c3000
TOC извлечённого CD
Трек | Старт | Длительность | Начальный сектор | Конечный сектор
---------------------------------------------------------------------
1 | 0:00.00 | 2:44.29 | 0 | 12328
2 | 2:44.29 | 2:41.12 | 12329 | 24415
3 | 5:25.41 | 2:52.68 | 24416 | 37383
4 | 8:18.34 | 2:54.66 | 37384 | 50499
5 | 11:13.25 | 4:21.16 | 50500 | 70090
6 | 15:34.41 | 2:32.26 | 70091 | 81516
7 | 18:06.67 | 1:59.61 | 81517 | 90502
8 | 20:06.53 | 3:12.03 | 90503 | 104905
9 | 23:18.56 | 3:17.38 | 104906 | 119718
10 | 26:36.19 | 5:29.60 | 119719 | 144453
11 | 32:06.04 | 2:56.37 | 144454 | 157690
12 | 35:02.41 | 5:47.46 | 157691 | 183761
13 | 40:50.12 | 2:57.41 | 183762 | 197077
14 | 43:47.53 | 4:41.04 | 197078 | 218156
15 | 48:28.57 | 2:57.51 | 218157 | 231482
16 | 51:26.33 | 4:09.23 | 231483 | 250180
17 | 55:35.56 | 4:55.55 | 250181 | 272360
18 | 60:31.36 | 3:25.59 | 272361 | 287794
19 | 63:57.20 | 4:31.40 | 287795 | 308159
Характеристики диапазона извлечения и сообщения об ошибках
Выбранный диапазон
Имя файла F:\2000.Big Bossa Nova Band with Quincy Jones & Stan Getz\Quincy Jones & Stan Getz - Big Bossa Nova Band with Quincy Jones & Stan Getz.wav
Пиковый уровень 100.0 %
Скорость извлечения 3.6 X
Качество диапазона 100.0 %
CRC теста A1F8B7A5
CRC копии A1F8B7A5
Копирование... OK
Ошибок не произошло
Конец отчёта
==== Контрольная сумма отчёта E5CE1241AAAF0C2351AC133601DE19DF277261FFAC3E5F4AED51A09664E48095 ====
 
Содержание индексной карты (.CUE)
REM GENRE Jazz
REM DATE 2000
REM DISCID 0D100C13
REM COMMENT "ExactAudioCopy v1.0b3"
PERFORMER "Quincy Jones & Stan Getz"
TITLE "Big Bossa Nova Band with Quincy Jones & Stan Getz"
FILE "Quincy Jones & Stan Getz - Big Bossa Nova Band with Quincy Jones & Stan Getz.ape" WAVE
TRACK 01 AUDIO
TITLE "Soul Bossa Nova"
PERFORMER "Quincy Jones & Stan Getz"
FLAGS DCP
INDEX 01 00:00:00
TRACK 02 AUDIO
TITLE "Boogie stop Shuffle"
PERFORMER "Quincy Jones & Stan Getz"
FLAGS DCP
INDEX 01 02:44:29
TRACK 03 AUDIO
TITLE "Desafinado"
PERFORMER "Quincy Jones & Stan Getz"
FLAGS DCP
INDEX 01 05:25:41
TRACK 04 AUDIO
TITLE "Manha de Carnaval"
PERFORMER "Quincy Jones & Stan Getz"
FLAGS DCP
INDEX 01 08:18:34
TRACK 05 AUDIO
TITLE "Se E Tarde Me Pardoa"
PERFORMER "Quincy Jones & Stan Getz"
FLAGS DCP
INDEX 01 11:13:25
TRACK 06 AUDIO
TITLE "On The Street Where You Live"
PERFORMER "Quincy Jones & Stan Getz"
FLAGS DCP
INDEX 01 15:34:41
TRACK 07 AUDIO
TITLE "Samba de Una Nota So "
PERFORMER "Quincy Jones & Stan Getz"
FLAGS DCP
INDEX 01 18:06:67
TRACK 08 AUDIO
TITLE "Lalo Bossa Nova"
PERFORMER "Quincy Jones & Stan Getz"
FLAGS DCP
INDEX 01 20:06:53
TRACK 09 AUDIO
TITLE "Serenata"
PERFORMER "Quincy Jones & Stan Getz"
FLAGS DCP
INDEX 01 23:18:56
TRACK 10 AUDIO
TITLE "Chega de Saudade"
PERFORMER "Quincy Jones & Stan Getz"
FLAGS DCP
INDEX 01 26:36:19
TRACK 11 AUDIO
TITLE "A Taste Of Honey (previously unissued)"
PERFORMER "Quincy Jones & Stan Getz"
FLAGS DCP
INDEX 01 32:06:04
TRACK 12 AUDIO
TITLE "Manha de Carnaval"
PERFORMER "Quincy Jones & Stan Getz"
FLAGS DCP
INDEX 01 35:02:41
TRACK 13 AUDIO
TITLE "Balanco No Samba"
PERFORMER "Quincy Jones & Stan Getz"
FLAGS DCP
INDEX 01 40:50:12
TRACK 14 AUDIO
TITLE "Melancolico"
PERFORMER "Quincy Jones & Stan Getz"
FLAGS DCP
INDEX 01 43:47:53
TRACK 15 AUDIO
TITLE "Entre Amigos"
PERFORMER "Quincy Jones & Stan Getz"
FLAGS DCP
INDEX 01 48:28:57
TRACK 16 AUDIO
TITLE "Chega de Saudade"
PERFORMER "Quincy Jones & Stan Getz"
FLAGS DCP
INDEX 01 51:26:33
TRACK 17 AUDIO
TITLE "Noite Triste"
PERFORMER "Quincy Jones & Stan Getz"
FLAGS DCP
INDEX 01 55:35:56
TRACK 18 AUDIO
TITLE "Samba De Uma Nota So"
PERFORMER "Quincy Jones & Stan Getz"
FLAGS DCP
INDEX 01 60:31:36
TRACK 19 AUDIO
TITLE "Bim Bom"
PERFORMER "Quincy Jones & Stan Getz"
FLAGS DCP
INDEX 01 63:57:20
00:42
614
Нет комментариев. Ваш будет первым!