Поиск

(World Fusion, Ethnic Jazz) Tamara Obrovac - Sve Pasiva (All Fades Away) - 2003, FLAC (image+.cue), lossless

(World Fusion, Ethnic Jazz) Tamara Obrovac - Sve Pasiva (All Fades Away) - 2003, FLAC (image+.cue), lossless
Tamara Obrovac - Sve Pasiva (All Fades Away)
Жанр: World Fusion, Ethnic Jazz
Страна-производитель диска: Croatia
Год издания: 2003
Издатель (лейбл): Cantus
Номер по каталогу: 988 984 943 2
Аудиокодек: FLAC (*.flac)
Тип рипа: image+.cue
Битрейт аудио: lossless
Источник (релизер): eD2k
Наличие сканов в содержимом раздачи: нет
Треклист:
01 - Gredu lita (Years pass by) (4:40)
02 - Sve pasiva (All fades away) (5:01)
03 - Ne placi Lucija (Don't cry Lucia) (5:55)
04 - Ca mi povida more (What sea tels me) (5:58)
05 - Cansoneita (Chanson) (6:00)
06 - Sexuvalna (5:42)
07 - Duet (Duo) (3:30)
08 - Stila (Quiet) (3:30)
09 - Sudba ti je dosla (Your faith has come) (4:21)
10 - Divojka (A girl) (4:44)
11 - Ona je cekala (She has waited) (6:10)
12 - Crno zlo (Black evil) (4:57)
13 - Sexuvalna live - bonus track (4:53)
 
Лог создания рипа
Exact Audio Copy V0.99 prebeta 3 from 28. July 2007
EAC extraction logfile from 24. November 2007, 15:43
Tamara Obrovac / Sve Pasiva (All Fades Away)
Used drive : PIONEER DVD-ROM DVD-121 Adapter: 1 ID: 1
Read mode : Secure
Utilize accurate stream : Yes
Defeat audio cache : Yes
Make use of C2 pointers : No
Read offset correction : 102
Overread into Lead-In and Lead-Out : No
Fill up missing offset samples with silence : Yes
Delete leading and trailing silent blocks : No
Null samples used in CRC calculations : Yes
Used interface : Native Win32 interface for Win NT & 2000
Used output format : Internal WAV Routines
Sample format : 44.100 Hz; 16 Bit; Stereo
TOC of the extracted CD
Track | Start | Length | Start sector | End sector
---------------------------------------------------------
1 | 0:00.00 | 4:42.73 | 0 | 21222
2 | 4:42.73 | 5:03.62 | 21223 | 44009
3 | 9:46.60 | 5:57.70 | 44010 | 70854
4 | 15:44.55 | 6:00.56 | 70855 | 97910
5 | 21:45.36 | 6:02.45 | 97911 | 125105
6 | 27:48.06 | 5:44.46 | 125106 | 150951
7 | 33:32.52 | 3:32.73 | 150952 | 166924
8 | 37:05.50 | 3:32.41 | 166925 | 182865
9 | 40:38.16 | 4:23.13 | 182866 | 202603
10 | 45:01.29 | 4:46.02 | 202604 | 224055
11 | 49:47.31 | 6:12.74 | 224056 | 252029
12 | 56:00.30 | 4:59.03 | 252030 | 274457
13 | 60:59.33 | 4:53.19 | 274458 | 296451
Range status and errors
Selected range
Filename D:\WAV\Tamara Obrovac - Sve Pasiva (All Fades Away).wav
Peak level 99.9 %
Range quality 100.0 %
Test CRC 44934D3A
Copy CRC 44934D3A
Copy OK
No errors occurred
AccurateRip summary
Track 1 not present in database
Track 2 not present in database
Track 3 not present in database
Track 4 not present in database
Track 5 not present in database
Track 6 not present in database
Track 7 not present in database
Track 8 not present in database
Track 9 not present in database
Track 10 not present in database
Track 11 not present in database
Track 12 not present in database
Track 13 not present in database
None of the tracks are present in the AccurateRip database
End of status report
 
Содержание индексной карты (.CUE)
REM GENRE Jazz
REM DATE 2003
REM DISCID B50F700D
REM COMMENT "ExactAudioCopy v0.99pb3"
PERFORMER "Tamara Obrovac"
TITLE "Sve Pasiva (All Fades Away)"
FILE "Tamara Obrovac - Sve Pasiva (All Fades Away).flac" WAVE
TRACK 01 AUDIO
TITLE "Gredu lita (Years pass By)"
PERFORMER "Tamara Obrovac"
INDEX 01 00:00:00
TRACK 02 AUDIO
TITLE "Sve pasiva (All Fades Away)"
PERFORMER "Tamara Obrovac"
INDEX 00 04:41:32
INDEX 01 04:42:73
TRACK 03 AUDIO
TITLE "Ne placi Lucija (Don't cry Lucija)"
PERFORMER "Tamara Obrovac"
INDEX 00 09:45:41
INDEX 01 09:46:60
TRACK 04 AUDIO
TITLE "Ca mi povida more (What Sea Tells Me)"
PERFORMER "Tamara Obrovac"
INDEX 00 15:43:11
INDEX 01 15:44:55
TRACK 05 AUDIO
TITLE "Cansongita (Chanson)"
PERFORMER "Tamara Obrovac"
INDEX 00 21:43:63
INDEX 01 21:45:36
TRACK 06 AUDIO
TITLE "Sexuvalna"
PERFORMER "Tamara Obrovac"
INDEX 00 27:46:16
INDEX 01 27:48:06
TRACK 07 AUDIO
TITLE "Duet (Duo)"
PERFORMER "Tamara Obrovac"
INDEX 00 33:30:57
INDEX 01 33:32:52
TRACK 08 AUDIO
TITLE "Stila (Quiet)"
PERFORMER "Tamara Obrovac"
INDEX 00 37:04:32
INDEX 01 37:05:50
TRACK 09 AUDIO
TITLE "Sudba ti je dosla (Your Fate has Come)"
PERFORMER "Tamara Obrovac"
INDEX 00 40:36:59
INDEX 01 40:38:16
TRACK 10 AUDIO
TITLE "Divojka (A Girl)"
PERFORMER "Tamara Obrovac"
INDEX 00 44:59:53
INDEX 01 45:01:29
TRACK 11 AUDIO
TITLE "Ona je cekala (She has Waited)"
PERFORMER "Tamara Obrovac"
INDEX 00 49:45:61
INDEX 01 49:47:31
TRACK 12 AUDIO
TITLE "Crno zlo (Black Evil)"
PERFORMER "Tamara Obrovac"
INDEX 00 55:58:29
INDEX 01 56:00:30
TRACK 13 AUDIO
TITLE "Sexualna (Live) - bonus track"
PERFORMER "Tamara Obrovac"
INDEX 00 60:58:20
INDEX 01 60:59:33
 
Лог проверки качества
[CUETools log; Date: 10.2.2013. 16:06:06; Version: 2.1.4]
[CTDB TOCID: LPLm8XfsOEcW4Jddkb6pkZe_t7c-] disk not present in database.
[AccurateRip ID: 00203008-013ff71c-b50f700d] found.
Track [ CRC | V2 ] Status
01 [1a6c569e|9287c591] (3+0/3) Accurately ripped
02 [8b58a4ee|df3716e6] (3+0/3) Accurately ripped
03 [21f6aac1|5b1e7612] (3+0/3) Accurately ripped
04 [6500b3c1|ed840e36] (3+0/3) Accurately ripped
05 [7914cc8a|9141f4a8] (2+0/2) Accurately ripped
06 [cc4a5292|72fd5a72] (3+0/3) Accurately ripped
07 [ba425124|78203a1c] (3+0/3) Accurately ripped
08 [5386cce2|0885e47a] (3+0/3) Accurately ripped
09 [cbc48c79|25beb8f0] (3+0/3) Accurately ripped
10 [de6b6640|2a4f8fc1] (3+0/3) Accurately ripped
11 [5e3be1fd|a2c4ee5a] (3+0/3) Accurately ripped
12 [fc4f8aaa|6ee42ccc] (3+0/3) Accurately ripped
13 [37253aa0|85880506] (3+0/3) Accurately ripped
Track Peak [ CRC32 ] [W/O NULL] [ LOG ]
-- 99,9 [D449E449] [44934D3A] W/O NULL
01 99,8 [DA8A76BD] [5A0D9BE7]
02 99,8 [C97E4732] [B6414820]
03 99,8 [D44E0B28] [3A8B12A7]
04 99,8 [E71EF15C] [6C1CCBC7]
05 99,8 [127BFD20] [245C7DEE]
06 99,8 [D7905ECD] [888A9653]
07 99,8 [D4C8C93A] [8C1A6F16]
08 99,8 [CB651D65] [57186A64]
09 99,8 [CE20F04B] [B48F27CC]
10 99,8 [E48BF0F6] [8DA2A3AC]
11 99,8 [FE7D6528] [51415107]
12 99,9 [50782391] [87051122]
13 98,8 [3703AB17] [C6B2B04E]
 
Об исполнителе (группе)
Jon Lusk, November 2003 (BBC Radio)
The folk music from Croatia's coastal region of Istria is known for its own ancient and distinctive scale as well as a suite of unique instruments which evolved in conjunction with it.
It's the strong influence of this tradition on the music of composer, flautist and singer Tamara Obrovac which has earned her this nomination, as one of the most prominent artists on the Croatian music scene.
Born in the town of Pula in 1962, Obrovac began her career as a performer while still a student in Zagreb. At that time she played alto saxophone and sang with local bands. Her determination to push at boundaries eventually led to a solo career, which began with the 1996 release of her debut CD Triade. It was hailed for its groundbreaking marriage of jazz and her Istrian roots, which she has subsequently refined over the course of three more albums. 1998 saw the release of Ulika (with the Tamara Obrovac Quartet), followed by Transhistria (2001) and her 2003 release Sve Pasiva (All Fades Away), both accompanied by the shifting personnel of her Transhistria Ensemble.
"My approach towards music went from jazz standards through my own compositions, to my finding of an original expression by connecting the language of the folk music of my homeland (Istria, Croatia) with the rhythms and improvisation typical for jazz, so jazz is my freedom and my roots are my inner truth," she explains.
Obrovac is enthusiastically praised in the Croatian press for the way she uses the works of Istrian poets in her music and indeed her own talents as a poet. She has also composed for ballet and theatre and is a member of the multi-cultural Balkan Horses Band, which currently also includes well-known musicians from Bulgaria, Romania, Turkey, Macedonia, Greece and Serbia.
 
Об альбоме (сборнике)
01 - Gredu lita / Years pass by (4:40)
02 - Sve pasiva / All fades away (5:01)
03 - Ne placi Lucija / Don't cry Lucija (5:55)
04 - Ca mi povida more / What sea tels me (5:58)
05 - Cansoneita / Chanson (6:00)
06 - Sexuvalna (5:42)
07 - Duet / Duo (3:30)
08 - Stila / Quiet (3:30)
09 - Sudba ti je dosla / Your faith has come (4:21)
10 - Divojka / A girl (4:44)
11 - Ona je cekala / She has waited (6:10)
12 - Crno zlo / Black evil (4:57)
13 - Sexuvalna live - bonus track (4:53)
 
Состав
Tamara Obrovac (composer, voice, flute),
Uros Rakovec (guitar, mandolin, mandole),
Simone Zanchini (accordion),
Ziga Golob (double bass),
Krunoslav Levacic (drums).
10:11
343
Нет комментариев. Ваш будет первым!