Поиск

(Modern Creative, Klezmer) Paul Brody's Sadawi - Beyond Babylon - 2004, FLAC (tracks+.cue), lossless

(Modern Creative, Klezmer) Paul Brody's Sadawi - Beyond Babylon - 2004, FLAC (tracks+.cue), lossless
Треклист:
Paul Brody's Sadawi / Beyond Babylon
Жанр: Modern Creative, Klezmer
Страна-производитель диска: US
Год издания: 2004
Издатель (лейбл): Tzadik
Номер по каталогу: 7188
Аудиокодек: FLAC (*.flac)
Тип рипа: tracks+.cue
Битрейт аудио: lossless
Продолжительность: 54:34
Источник (релизер): Aeacos Спасибо!
Наличие сканов в содержимом раздачи: нет
Треклист:
1. Two Be Simple (Paul Brody - Composer) - 5:35
2. Basketball Barmitzva (Paul Brody - Composer) - 3:35
3. A Fragment of Kafka's Friend (Paul Brody - Composer) - 5:54
4. Masks and Faces (Ben Goldberg - Composer) - 6:19
5. Timepeace (Paul Brody - Composer) - 5:47
6. Klezmer à la Bechet (David Krakauer - Composer) - 8:53
7. Golem Khosidl (Frank London - Composer) - 9:52
8. Glass Dance (Paul Brody - Composer) - 4:07
9. An Eye for a You (Paul Brody - Composer) - 4:26
 
Лог создания рипа
Exact Audio Copy V1.0 beta 3 from 29. August 2011
EAC extraction logfile from 14. June 2012, 9:51
Paul Brody's Sadawi / Beyond Babylon
Used drive : PLDS DVD+-RW DH-16A6S Adapter: 1 ID: 0
Read mode : Secure
Utilize accurate stream : Yes
Defeat audio cache : Yes
Make use of C2 pointers : No
Read offset correction : 6
Overread into Lead-In and Lead-Out : No
Fill up missing offset samples with silence : Yes
Delete leading and trailing silent blocks : No
Null samples used in CRC calculations : Yes
Used interface : Native Win32 interface for Win NT & 2000
Gap handling : Appended to previous track
Used output format : User Defined Encoder
Selected bitrate : 768 kBit/s
Quality : High
Add ID3 tag : No
Command line compressor : C:\Program Files\Exact Audio Copy\FLAC\FLAC.EXE
Additional command line options : -8 -V -T "ARTIST=%artist%" -T "TITLE=%title%" -T "ALBUM=%albumtitle%" -T "DATE=%year%" -T "TRACKNUMBER=%tracknr%" -T "GENRE=%genre%" -T "PERFORMER=%albuminterpret%" -T "COMPOSER=%composer%" %haslyrics%--tag-from-file=LYRICS="%lyricsfile%"%haslyrics% -T "ALBUMARTIST=%albumartist%" -T "DISCNUMBER=%cdnumber%" -T "TOTALDISCS=%totalcds%" -T "TOTALTRACKS=%numtracks%" -T "COMMENT=%comment%" %source% -o %dest%
TOC of the extracted CD
Track | Start | Length | Start sector | End sector
---------------------------------------------------------
1 | 0:00.00 | 5:35.43 | 0 | 25167
2 | 5:35.43 | 3:35.17 | 25168 | 41309
3 | 9:10.60 | 5:54.60 | 41310 | 67919
4 | 15:05.45 | 6:19.13 | 67920 | 96357
5 | 21:24.58 | 5:47.10 | 96358 | 122392
6 | 27:11.68 | 8:53.73 | 122393 | 162440
7 | 36:05.66 | 9:52.34 | 162441 | 206874
8 | 45:58.25 | 4:07.36 | 206875 | 225435
9 | 50:05.61 | 4:26.15 | 225436 | 245400
Track 1
Filename C:\EAC Rips\01 - Two Be Simple.wav
Pre-gap length 0:00:02.00
Peak level 98.8 %
Extraction speed 4.5 X
Track quality 100.0 %
Test CRC A50FD2E3
Copy CRC A50FD2E3
Accurately ripped (confidence 1) [C18318B6] (AR v1)
Copy OK
Track 2
Filename C:\EAC Rips\02 - Basketball Barmitzva.wav
Peak level 98.8 %
Extraction speed 4.4 X
Track quality 100.0 %
Test CRC 9F300DEC
Copy CRC 9F300DEC
Accurately ripped (confidence 1) [97B0927E] (AR v1)
Copy OK
Track 3
Filename C:\EAC Rips\03 - A Fragment of Kafka's Friend.wav
Peak level 98.8 %
Extraction speed 5.2 X
Track quality 100.0 %
Test CRC D464EB1A
Copy CRC D464EB1A
Accurately ripped (confidence 1) [5FDC6141] (AR v1)
Copy OK
Track 4
Filename C:\EAC Rips\04 - Masks and Faces.wav
Peak level 98.8 %
Extraction speed 5.7 X
Track quality 100.0 %
Test CRC 1457E9B9
Copy CRC 1457E9B9
Accurately ripped (confidence 1) [E09627B0] (AR v1)
Copy OK
Track 5
Filename C:\EAC Rips\05 - Timepeace.wav
Peak level 98.8 %
Extraction speed 5.8 X
Track quality 100.0 %
Test CRC 6A046ADC
Copy CRC 6A046ADC
Accurately ripped (confidence 1) [3E911A60] (AR v1)
Copy OK
Track 6
Filename C:\EAC Rips\06 - Klezmer a la Bechet.wav
Peak level 98.8 %
Extraction speed 6.6 X
Track quality 100.0 %
Test CRC 485C669A
Copy CRC 485C669A
Accurately ripped (confidence 1) [A57CD60D] (AR v1)
Copy OK
Track 7
Filename C:\EAC Rips\07 - Golem Khosidl.wav
Peak level 98.8 %
Extraction speed 8.1 X
Track quality 100.0 %
Test CRC 46EBB720
Copy CRC 46EBB720
Accurately ripped (confidence 1) [26F46409] (AR v1)
Copy OK
Track 8
Filename C:\EAC Rips\08 - Glass Dance.wav
Peak level 98.8 %
Extraction speed 7.9 X
Track quality 100.0 %
Test CRC DD37B8FE
Copy CRC DD37B8FE
Accurately ripped (confidence 1) [E54E1F36] (AR v1)
Copy OK
Track 9
Filename C:\EAC Rips\09 - An Eye For A You.wav
Peak level 98.8 %
Extraction speed 8.2 X
Track quality 100.0 %
Test CRC E36C5A12
Copy CRC E36C5A12
Cannot be verified as accurate (confidence 1) [CF59DC73], AccurateRip returned [2FAC1264] (AR v2)
Copy OK
8 track(s) accurately ripped
1 track(s) could not be verified as accurate
Some tracks could not be verified as accurate
No errors occurred
End of status report
---- CUETools DB Plugin V2.1.3
[CTDB TOCID: KL.RiwxVEjPNSgqseLYz6UErQyE-] found, Submit result: KL.RiwxVEjPNSgqseLYz6UErQyE- has been confirmed
[6396bc29] (1/1) Accurately ripped
==== Log checksum F3738449B4A36ED1BE3F2622205272480E5E2A83E27D26463EE47474E2E33C54 ====
 
Содержание индексной карты (.CUE)
REM GENRE Jazz
REM DATE 2004
REM DISCID 720CC809
REM COMMENT "ExactAudioCopy v1.0b3"
PERFORMER "Paul Brody's Sadawi"
TITLE "Beyond Babylon"
FILE "01 - Two Be Simple.wav" WAVE
TRACK 01 AUDIO
TITLE "Two Be Simple"
PERFORMER "Paul Brody's Sadawi"
INDEX 01 00:00:00
FILE "02 - Basketball Barmitzva.wav" WAVE
TRACK 02 AUDIO
TITLE "Basketball Barmitzva"
PERFORMER "Paul Brody's Sadawi"
INDEX 01 00:00:00
FILE "03 - A Fragment of Kafka's Friend.wav" WAVE
TRACK 03 AUDIO
TITLE "A Fragment of Kafka's Friend"
PERFORMER "Paul Brody's Sadawi"
INDEX 01 00:00:00
FILE "04 - Masks and Faces.wav" WAVE
TRACK 04 AUDIO
TITLE "Masks and Faces"
PERFORMER "Paul Brody's Sadawi"
INDEX 01 00:00:00
FILE "05 - Timepeace.wav" WAVE
TRACK 05 AUDIO
TITLE "Timepeace"
PERFORMER "Paul Brody's Sadawi"
INDEX 01 00:00:00
FILE "06 - Klezmer a la Bechet.wav" WAVE
TRACK 06 AUDIO
TITLE "Klezmer a la Bechet"
PERFORMER "Paul Brody's Sadawi"
INDEX 01 00:00:00
FILE "07 - Golem Khosidl.wav" WAVE
TRACK 07 AUDIO
TITLE "Golem Khosidl"
PERFORMER "Paul Brody's Sadawi"
INDEX 01 00:00:00
FILE "08 - Glass Dance.wav" WAVE
TRACK 08 AUDIO
TITLE "Glass Dance"
PERFORMER "Paul Brody's Sadawi"
INDEX 01 00:00:00
FILE "09 - An Eye For A You.wav" WAVE
TRACK 09 AUDIO
TITLE "An Eye For A You"
PERFORMER "Paul Brody's Sadawi"
INDEX 01 00:00:00
 
Об альбоме (сборнике)
Working out of Berlin, Paul Brody is pushing the boundaries of Jewish music with his remarkable band Sadawi. His second CD for Tzadik features five uptempo originals and creative arrangements of Tzadik classics by Frank London, the New Klezmer Trio, Naftule's Dream and David Krakauer. www.paulbrody.net
 
Состав
Alan Bern: Melodica, Accordion
Paul Brody: Trumpet
Jan Hermerschmidt: Clarinet, Bass Clarinet
Martin Lillich: Bass
Eric Rosenthal: Drums
Brandon Seabrook: Banjo, Guitar, Electronics
10:11
258
Нет комментариев. Ваш будет первым!