Поиск

(World Fusion, Ethnic Jazz, Latin Jazz) Zone - Metade - 2011, APE (tracks+.cue), lossless

(World Fusion, Ethnic Jazz, Latin Jazz) Zone - Metade - 2011, APE (tracks+.cue), lossless
Треклист:
•Zone - Metade•
Жанр: World Fusion, Ethnic Jazz, Latin Jazz
Год издания: 2011
Издатель (лейбл): Dneeyedfish
Аудиокодек: APE (*.ape)
Тип рипа: tracks+.cue
Битрейт аудио: lossless
Продолжительность: 01:01:50
Источник (релизер): Рип с диска.
Наличие сканов в содержимом раздачи: да
Треклист:
01.Metade {05:06}
02.Don't Know {05:10}
03.Nao Abro Mao {03:57}
04.Your Precious Love {03:56}
05.Foolish Gap {04:29}
06.Lady Gaia {05:12}
07.Into My World {04:29}
08.Sonho {06:15}
09.All Do Can Do {04:06}
10.Demi-God Rogue {04:55}
11.Streets Below {04:54}
12.Mary's Eyes {07:19}
13.Stefano's Blues {01:55}
Personnel:
Enzo Torregrossa Aka Zone - b, p, sinth
Gherardo Catanzaro - p, sinth, bandoneon
Filippo Mignatti - dr, perc., cymbals
Heloisa Lourenco Aka Luma - vocal
Robert Henry Aka Robli - vocal, tp
Gigi Sella - ss, ts
 
Лог создания рипа
Exact Audio Copy V1.0 beta 3 from 29. August 2011
Отчёт EAC об извлечении, выполненном 15. октября 2012, 18:54
Zone / Metade
Дисковод: Optiarc DVD RW AD-5200A Adapter: 0 ID: 0
Режим чтения : Достоверность
Использование точного потока : Да
Отключение кэша аудио : Да
Использование указателей C2 : Нет
Коррекция смещения при чтении : 48
Способность читать области Lead-in и Lead-out : Нет
Заполнение пропущенных сэмплов тишиной : Да
Удаление блоков с тишиной в начале и конце : Нет
При вычислениях CRC использовались нулевые сэмплы : Да
Интерфейс : Встроенный Win32-интерфейс для Win NT/2000
Обработка зазоров : Добавлено к предыдущему треку
Выходной формат : Пользовательский кодировщик
Выбранный битрейт : 128 kBit/s
Качество : Высокий
Добавление ID3-тега : Нет
Утилита сжатия : F:\Program Files\Monkey's Audio\wapet.exe
Дополнительные параметры : %dest% -t "Genre=%genre%" -t "Artist=%artist%" -t "Title=%title%" -t "Album=%albumtitle%" -t "Year=%year%" -t "Track=%tracknr%" -t "Comment=%comment%" mac.exe %source% %dest% -c3000
TOC извлечённого CD
Трек | Старт | Длительность | Начальный сектор | Конечный сектор
---------------------------------------------------------------------
1 | 0:00.00 | 5:06.00 | 0 | 22949
2 | 5:06.00 | 5:10.41 | 22950 | 46240
3 | 10:16.41 | 3:57.71 | 46241 | 64086
4 | 14:14.37 | 3:56.44 | 64087 | 81830
5 | 18:11.06 | 4:29.28 | 81831 | 102033
6 | 22:40.34 | 5:12.64 | 102034 | 125497
7 | 27:53.23 | 4:29.68 | 125498 | 145740
8 | 32:23.16 | 6:15.70 | 145741 | 173935
9 | 38:39.11 | 4:06.24 | 173936 | 192409
10 | 42:45.35 | 4:55.56 | 192410 | 214590
11 | 47:41.16 | 4:54.22 | 214591 | 236662
12 | 52:35.38 | 7:19.27 | 236663 | 269614
13 | 59:54.65 | 1:55.30 | 269615 | 278269
Трек 1
Имя файла F:\2011.Zone - Metade\01. Metade.wav
Длина предзазора 0:00:02.00
Пиковый уровень 97.7 %
Скорость извлечения 2.3 X
Качество трека 100.0 %
CRC теста 83200478
CRC копии 83200478
Трек не обнаружен в базе AccurateRip
Копирование... OK
Трек 2
Имя файла F:\2011.Zone - Metade\02. Don't Know.wav
Длина предзазора 0:00:02.00
Пиковый уровень 97.7 %
Скорость извлечения 2.6 X
Качество трека 100.0 %
CRC теста E7E29BEA
CRC копии E7E29BEA
Трек не обнаружен в базе AccurateRip
Копирование... OK
Трек 3
Имя файла F:\2011.Zone - Metade\03. Nao Abro Mao.wav
Длина предзазора 0:00:02.00
Пиковый уровень 97.7 %
Скорость извлечения 2.6 X
Качество трека 100.0 %
CRC теста EE0D31D5
CRC копии EE0D31D5
Трек не обнаружен в базе AccurateRip
Копирование... OK
Трек 4
Имя файла F:\2011.Zone - Metade\04. Your Precious Love.wav
Длина предзазора 0:00:02.00
Пиковый уровень 97.7 %
Скорость извлечения 2.9 X
Качество трека 100.0 %
CRC теста BAEF69FE
CRC копии BAEF69FE
Трек не обнаружен в базе AccurateRip
Копирование... OK
Трек 5
Имя файла F:\2011.Zone - Metade\05. Foolish Gap.wav
Длина предзазора 0:00:01.74
Пиковый уровень 97.7 %
Скорость извлечения 3.2 X
Качество трека 100.0 %
CRC теста EC456631
CRC копии EC456631
Трек не обнаружен в базе AccurateRip
Копирование... OK
Трек 6
Имя файла F:\2011.Zone - Metade\06. Lady Gaia.wav
Длина предзазора 0:00:02.00
Пиковый уровень 97.7 %
Скорость извлечения 3.4 X
Качество трека 100.0 %
CRC теста 776D5902
CRC копии 776D5902
Трек не обнаружен в базе AccurateRip
Копирование... OK
Трек 7
Имя файла F:\2011.Zone - Metade\07. Into My World.wav
Длина предзазора 0:00:02.00
Пиковый уровень 97.7 %
Скорость извлечения 3.2 X
Качество трека 99.9 %
CRC теста 4B68B55A
CRC копии 4B68B55A
Трек не обнаружен в базе AccurateRip
Копирование... OK
Трек 8
Имя файла F:\2011.Zone - Metade\08. Sonho.wav
Длина предзазора 0:00:02.00
Пиковый уровень 97.7 %
Скорость извлечения 3.7 X
Качество трека 100.0 %
CRC теста 37E6F2BA
CRC копии 37E6F2BA
Трек не обнаружен в базе AccurateRip
Копирование... OK
Трек 9
Имя файла F:\2011.Zone - Metade\09. All Do Can Do.wav
Длина предзазора 0:00:02.00
Пиковый уровень 97.7 %
Скорость извлечения 2.5 X
Качество трека 99.8 %
CRC теста 68CB7D2E
CRC копии 68CB7D2E
Трек не обнаружен в базе AccurateRip
Копирование... OK
Трек 10
Имя файла F:\2011.Zone - Metade\10. Demi-God Rogue.wav
Длина предзазора 0:00:01.74
Пиковый уровень 97.7 %
Скорость извлечения 3.0 X
Качество трека 99.8 %
CRC теста C7E79E19
CRC копии C7E79E19
Трек не обнаружен в базе AccurateRip
Копирование... OK
Трек 11
Имя файла F:\2011.Zone - Metade\11. Streets Below.wav
Длина предзазора 0:00:02.00
Пиковый уровень 97.7 %
Скорость извлечения 4.1 X
Качество трека 100.0 %
CRC теста CCC8C799
CRC копии CCC8C799
Трек не обнаружен в базе AccurateRip
Копирование... OK
Трек 12
Имя файла F:\2011.Zone - Metade\12. Mary's Eyes.wav
Длина предзазора 0:00:02.00
Пиковый уровень 97.7 %
Скорость извлечения 4.4 X
Качество трека 100.0 %
CRC теста 967A906C
CRC копии 967A906C
Трек не обнаружен в базе AccurateRip
Копирование... OK
Трек 13
Имя файла F:\2011.Zone - Metade\13. Stefano's Blues.wav
Длина предзазора 0:00:01.74
Пиковый уровень 97.7 %
Скорость извлечения 3.7 X
Качество трека 100.0 %
CRC теста BB088191
CRC копии BB088191
Трек не обнаружен в базе AccurateRip
Копирование... OK
Ни одного трека нет в базе AccurateRip
Ошибок не произошло
Конец отчёта
==== Контрольная сумма отчёта 3F21F1CCDF0CC744392C832461420C0E046A6383ADEEFA50B67B19727A96F141 ====
 
Содержание индексной карты (.CUE)
REM GENRE Jazz
REM DATE 2011
REM DISCID C40E7E0D
REM COMMENT "ExactAudioCopy v1.0b3"
PERFORMER "Zone"
TITLE "Metade"
FILE "01. Metade.wav" WAVE
TRACK 01 AUDIO
TITLE "Metade"
PERFORMER "Zone"
ISRC ITJ510800344
INDEX 01 00:00:00
TRACK 02 AUDIO
TITLE "Don't Know"
PERFORMER "Zone"
ISRC ITJ510800345
INDEX 00 05:04:00
FILE "02. Don't Know.wav" WAVE
INDEX 01 00:00:00
TRACK 03 AUDIO
TITLE "Nao Abro Mao"
PERFORMER "Zone"
ISRC ITJ510800346
INDEX 00 05:08:41
FILE "03. Nao Abro Mao.wav" WAVE
INDEX 01 00:00:00
TRACK 04 AUDIO
TITLE "Your Precious Love"
PERFORMER "Zone"
ISRC ITJ510800347
INDEX 00 03:55:71
FILE "04. Your Precious Love.wav" WAVE
INDEX 01 00:00:00
TRACK 05 AUDIO
TITLE "Foolish Gap"
PERFORMER "Zone"
ISRC ITJ510800348
INDEX 00 03:54:45
FILE "05. Foolish Gap.wav" WAVE
INDEX 01 00:00:00
TRACK 06 AUDIO
TITLE "Lady Gaia"
PERFORMER "Zone"
ISRC ITJ510800349
INDEX 00 04:27:28
FILE "06. Lady Gaia.wav" WAVE
INDEX 01 00:00:00
TRACK 07 AUDIO
TITLE "Into My World"
PERFORMER "Zone"
ISRC ITJ510800350
INDEX 00 05:10:64
FILE "07. Into My World.wav" WAVE
INDEX 01 00:00:00
TRACK 08 AUDIO
TITLE "Sonho"
PERFORMER "Zone"
ISRC ITJ510800351
INDEX 00 04:27:68
FILE "08. Sonho.wav" WAVE
INDEX 01 00:00:00
TRACK 09 AUDIO
TITLE "All Do Can Do"
PERFORMER "Zone"
ISRC ITJ510800352
INDEX 00 06:13:70
FILE "09. All Do Can Do.wav" WAVE
INDEX 01 00:00:00
TRACK 10 AUDIO
TITLE "Demi-God Rogue"
PERFORMER "Zone"
ISRC ITJ510800353
INDEX 00 04:04:25
FILE "10. Demi-God Rogue.wav" WAVE
INDEX 01 00:00:00
TRACK 11 AUDIO
TITLE "Streets Below"
PERFORMER "Zone"
ISRC ITJ510800354
INDEX 00 04:53:56
FILE "11. Streets Below.wav" WAVE
INDEX 01 00:00:00
TRACK 12 AUDIO
TITLE "Mary's Eyes"
PERFORMER "Zone"
ISRC ITJ510800355
INDEX 00 04:52:22
FILE "12. Mary's Eyes.wav" WAVE
INDEX 01 00:00:00
TRACK 13 AUDIO
TITLE "Stefano's Blues"
PERFORMER "Zone"
ISRC ITJ510800356
INDEX 00 07:17:28
FILE "13. Stefano's Blues.wav" WAVE
INDEX 01 00:00:00
05:23
272
Нет комментариев. Ваш будет первым!