Поиск

(Hard Bop, Afro-Cuban Jazz, World Fusion) Al McKibbon - Black Orchid - 2003, FLAC (image+.cue), lossless

Треклист:
Al McKibbon - Black Orchid
Жанр: Hard Bop, Afro-Cuban Jazz, World Fusion
Страна-производитель диска: США
Год издания: 2003
Издатель (лейбл): Niche
Номер по каталогу: AM2987
Аудиокодек: FLAC (*.flac)
Тип рипа: image+.cue
Битрейт аудио: lossless
Продолжительность: 46:47
Источник (релизер): dreadbull (hqshare)
Наличие сканов в содержимом раздачи: да
Треклист:
01. U.M.M.G. (Strayhorn) - 4:53
02. Black Orchid (Tjader) - 8:03
03. Little Niles (Weston) - 7:02
04. Tres Palabras (Farres) - 3:37
05. Ode to Billie Joe (Gentry) - 4:55
06. Monsieur Philippe (Wright) - 3:47
07. Isfahan (Strayhorn) - 7:15
08. Big Al's Blues (McKibbon) - 7:11
Состав:
Al McKibbon - bass
Frank Morocco - accordion
Barry Zweig - guitar
Ramon Banda - drums
Donald Vega - piano
Justo Almario - flute
Joe DeLeon - percussion
Rob Kyle - saxophone
 
Лог создания рипа
EAC extraction logfile from 2. October 2008, 1:28 for CD
Al McKibbon / Black Orchid
Used drive : PLEXTOR DVDR PX-750A Adapter: 0 ID: 1
Read mode : Secure with NO C2, accurate stream, disable cache
Read offset correction : 102
Overread into Lead-In and Lead-Out : No
Used output format : Internal WAV Routines
44.100 Hz; 16 Bit; Stereo
Other options :
Fill up missing offset samples with silence : Yes
Delete leading and trailing silent blocks : No
Installed external ASPI interface
Range status and errors
Selected range
Filename E:\Donkey Files\Al McKibbon - Black Orchid (2003, Niche Records) [eac-ape-covers]\CDImage.wav
Peak level 99.6 %
Range quality 100.0 %
CRC 2844E1BA
Copy OK
No errors occured
End of status report
 
Содержание индексной карты (.CUE)
PERFORMER "Al McKibbon"
TITLE "Black Orchid"
FILE "Al McKibbon - Black Orchid.wav" WAVE
TRACK 01 AUDIO
TITLE "U.M.M.G."
PERFORMER "Al McKibbon"
INDEX 01 00:00:00
TRACK 02 AUDIO
TITLE "Black Orchid"
PERFORMER "Al McKibbon"
INDEX 00 04:51:65
INDEX 01 04:53:60
TRACK 03 AUDIO
TITLE "Little Niles"
PERFORMER "Al McKibbon"
INDEX 00 12:55:25
INDEX 01 12:57:12
TRACK 04 AUDIO
TITLE "Tres Palabras"
PERFORMER "Al McKibbon"
INDEX 00 19:58:60
INDEX 01 19:59:70
TRACK 05 AUDIO
TITLE "Ode to Billie Joe"
PERFORMER "Al McKibbon"
INDEX 01 23:37:42
TRACK 06 AUDIO
TITLE "Monsieur Philippe"
PERFORMER "Al McKibbon"
INDEX 01 28:32:45
TRACK 07 AUDIO
TITLE "Isfahan"
PERFORMER "Al McKibbon"
INDEX 00 32:18:60
INDEX 01 32:20:25
TRACK 08 AUDIO
TITLE "Big Al's Blues"
PERFORMER "Al McKibbon"
INDEX 00 39:34:67
INDEX 01 39:35:72
 
Об альбоме (сборнике)
McKibbon is a living anthology of jazz music, having worked with Miles Davis, John Coltrane, Thelonious Monk, Count Basie, Charlie Parker, and Art Blakey, and performing with Frank Sinatra, Sammy Davis Jr., Dean Martin, Nat "King" Cole, and Ray Charles. His honors include being featured in a Smithsonian Institute Latin Jazz exhibition, authoring the forward to Raul Fernandez's influential book, "Latin Jazz", and receiving a Lifetime Achievement Award from Bass Player Magazine. "Black Orchid" is an enchanting album, combining the tradition of Latin Jazz rhythms with a new approach to melody and harmonic accents.
Взамен ушедшей в архив.
05:24
243
Нет комментариев. Ваш будет первым!