Поиск

(World Fusion, Ethnic Jazz) Kip Hanrahan - Coupe de Tete - 1981, FLAC (image+.cue), lossless

(World Fusion, Ethnic Jazz) Kip Hanrahan - Coupe de Tete - 1981, FLAC (image+.cue), lossless
Треклист:
Kip Hanrahan / Coupe de Tete
Жанр: World Fusion, Ethnic Jazz
Страна-производитель диска: Germany
Год издания: 1981
Издатель (лейбл): american clave
Номер по каталогу: amcl 1007 2
Страна: USA
Аудиокодек: FLAC (*.flac)
Тип рипа: image+.cue
Битрейт аудио: lossless
Продолжительность: 44:42
Источник (релизер): rip itr
Наличие сканов в содержимом раздачи: да
Треклист:
1. Whatever I want 5:44
2. At the moment of the serve 5:21
3. This night comes out of both of us 5:42
4. India song 4:18
5. A lover divides time 3:17
6. No one gets to transcend anything 3:43
7. Shadow to shadow 7:07
8. Sketch from two cubas 4:09
9. Heart on my sleeve 5:19
 
Лог создания рипа
Exact Audio Copy V0.99 prebeta 5 from 4. May 2009
EAC extraction logfile from 30. November 2010, 9:56
Kip Hanrahan / Coupe de Tete
Used drive : _NEC DVD_RW ND-3500AG Adapter: 0 ID: 0
Read mode : Secure
Utilize accurate stream : Yes
Defeat audio cache : Yes
Make use of C2 pointers : No
Read offset correction : 48
Overread into Lead-In and Lead-Out : No
Fill up missing offset samples with silence : Yes
Delete leading and trailing silent blocks : No
Null samples used in CRC calculations : Yes
Used interface : Native Win32 interface for Win NT & 2000
Used output format : User Defined Encoder
Selected bitrate : 768 kBit/s
Quality : High
Add ID3 tag : No
Command line compressor : C:\Program Files\Exact Audio Copy\FLAC\FLAC.EXE
Additional command line options : -6 -V -T "ARTIST=%a" -T "TITLE=%t" -T "ALBUM=%g" -T "DATE=%y" -T "TRACKNUMBER=%n" -T "GENRE=%m" -T "COMMENT=%e" %s -o %d
TOC of the extracted CD
Track | Start | Length | Start sector | End sector
---------------------------------------------------------
1 | 0:00.00 | 5:44.20 | 0 | 25819
2 | 5:44.20 | 5:21.25 | 25820 | 49919
3 | 11:05.45 | 5:42.65 | 49920 | 75634
4 | 16:48.35 | 4:18.00 | 75635 | 94984
5 | 21:06.35 | 3:17.37 | 94985 | 109796
6 | 24:23.72 | 3:43.48 | 109797 | 126569
7 | 28:07.45 | 7:07.60 | 126570 | 158654
8 | 35:15.30 | 4:09.05 | 158655 | 177334
9 | 39:24.35 | 5:17.65 | 177335 | 201174
Range status and errors
Selected range
Filename J:\eMusic\Rip\Kip Hanrahan - Coupe de Tete.wav
Peak level 100.0 %
Range quality 99.9 %
Test CRC 2FB32105
Copy CRC 2FB32105
Copy OK
No errors occurred
AccurateRip summary
Track 1 accurately ripped (confidence 1) [04EF3D87]
Track 2 accurately ripped (confidence 1) [49D3EC6C]
Track 3 accurately ripped (confidence 1) [212DDF40]
Track 4 accurately ripped (confidence 1) [1CB81CFB]
Track 5 accurately ripped (confidence 1) [2F0629E4]
Track 6 accurately ripped (confidence 1) [2AEEDC35]
Track 7 accurately ripped (confidence 1) [E3F5D1F3]
Track 8 accurately ripped (confidence 1) [1C2C3A0D]
Track 9 accurately ripped (confidence 1) [C2944B89]
All tracks accurately ripped
 
Состав
Personnel:
Kip Hanrahan (Voice and Percussion, Quinto) - 1-3,5-9
Jerry Gonzalez (Congas and Percussion) - 1-3,5-8
Arto Lindsay (Electric Guitar) - 1-3,5-8
Anton Fier (Trap Drums) - 1-3,5-8
Daniel Ponce (Congas and Iya) - 1-3,5,7
Chico Freeman (Tenor Saxophone and Clarinet) - 1,2,4,9
Carlos Ward (Alto Saxophone) - 2,4,7,9
Bill Laswell (Bass Guitar) - 1,3,4,7
Lisa Herman (Voice) - 3,5,7
George Cartwright (Alto Saxophone, Flute and Piccolo) - 1,3,4
Ignacio Berroa (Trap Drums) - 2,5,6
Jamaaladen Tacuma (Electric Bass) - 2,5,6
Nicky Marrero (Bongos and Okonkolo) - 1,3
Byard Lancaster (Tenor Saxophone, Flute) - 1,3
George Naha (Electric Guitar) - 2,3
Orlando Digirolamo (Accordion) - 4,9
Gene Golden (Chekere and Congas) - 6,8
Carla Bley (Piano and Voice) - 4
Billy Bang (Violin) - 4
John Clark (French Horn) - 4
Angel Perez (Congas) - 6
John Stubblefield (Tenor Saxophone) - 6
Bern Nix (Electric Guitar) - 6
Dom Um Romao (Surdo Grande and Agogo) - 7
Fred Firth (Electric Guitar) - 7
Carlos Mestre (Congas) - 8
Michael Mantler (Trumpet) - 8
Cecil McBee (Double Bass) - 9
Teo Macero (Tenor Saxophone) - 9
David Liebman (Soprano Saxophone) - 9
Victor Lewis (Drums) - 9
09:35
286
Нет комментариев. Ваш будет первым!