Поиск

(World Fusion, Afro-Cuban Jazz) Carlos “Patato” Valdes - Ritmo y Candela II: African Crossroads - 1996, FLAC (image+.cue), lossless

(World Fusion, Afro-Cuban Jazz) Carlos “Patato” Valdes - Ritmo y Candela II: African Crossroads - 1996, FLAC (image+.cue), lossless
Треклист:
•Carlos “Patato” Valdes - Ritmo y Candela II: African Crossroads•
Жанр: World Fusion, Afro-Cuban Jazz
Страна-производитель диска: USA
Год издания: 1996
Издатель (лейбл): Round World
Номер по каталогу: RWCD 9702
Аудиокодек: FLAC (*.flac)
Тип рипа: image+.cue
Битрейт аудио: lossless
Продолжительность: 00:54:39
Источник (релизер): dreadbull
Наличие сканов в содержимом раздачи: да
Треклист:
01. El Lenguaje del Son [06:27]
02. Son de Patato [07:17]
03. Kora-son [06:36]
04. Guloya Swing [04:27]
05. Guajira en el Espacio [02:24]
06. Sangre de Africa [04:19]
07. Sonando en Cubano [06:44]
08. Mbula Enoka [08:14]
09. Ensalada de Melon, Patato, y Anga [08:07]
 
Лог создания рипа
Exact Audio Copy V1.0 beta 3 from 29. August 2011
EAC extraction logfile from 12. December 2012, 14:07
Various Artists / Ritmo y Candela II african crossroads
Used drive : ASUS DRW-22B2L Adapter: 0 ID: 0
Read mode : Secure
Utilize accurate stream : Yes
Defeat audio cache : Yes
Make use of C2 pointers : No
Read offset correction : 6
Overread into Lead-In and Lead-Out : No
Fill up missing offset samples with silence : Yes
Delete leading and trailing silent blocks : No
Null samples used in CRC calculations : Yes
Used interface : Native Win32 interface for Win NT & 2000
Used output format : User Defined Encoder
Selected bitrate : 128 kBit/s
Quality : High
Add ID3 tag : Yes
Command line compressor : C:\Program Files\FLAC\flac.exe
Additional command line options : -8 -V -T "ARTIST=%artist%" -T "TITLE=%title%" -T "ALBUM=%albumtitle%" -T "DATE=%year%" -T "TRACKNUMBER=%tracknr%" -T "GENRE=%genre%" -T "PERFORMER=%albuminterpret%" -T "COMPOSER=%composer%" %haslyrics%--tag-from-file=LYRICS="%lyricsfile%"%haslyrics% -T "ALBUMARTIST=%albumartist%" -T "DISCNUMBER=%cdnumber%" -T "TOTALDISCS=%totalcds%" -T "TOTALTRACKS=%numtracks%" -T "COMMENT=%comment%" %source% -o %dest%
TOC of the extracted CD
Track | Start | Length | Start sector | End sector
---------------------------------------------------------
1 | 0:00.00 | 6:27.30 | 0 | 29054
2 | 6:27.30 | 7:17.05 | 29055 | 61834
3 | 13:44.35 | 6:36.15 | 61835 | 91549
4 | 20:20.50 | 4:27.67 | 91550 | 111641
5 | 24:48.42 | 2:24.03 | 111642 | 122444
6 | 27:12.45 | 4:19.70 | 122445 | 141939
7 | 31:32.40 | 6:44.60 | 141940 | 172299
8 | 38:17.25 | 8:14.70 | 172300 | 209419
9 | 46:32.20 | 8:07.12 | 209420 | 245956
Range status and errors
Selected range
Filename F:\Donkey Files\Patato - Ritmo y Candela. African Crossroads II. [eac-flac--scans] byDrBull.wav
Peak level 100.0 %
Extraction speed 3.2 X
Range quality 100.0 %
Test CRC 0FD4173D
Copy CRC 0FD4173D
Copy OK
No errors occurred
AccurateRip summary
Track 1 not present in database
Track 2 not present in database
Track 3 not present in database
Track 4 not present in database
Track 5 not present in database
Track 6 not present in database
Track 7 not present in database
Track 8 not present in database
Track 9 not present in database
None of the tracks are present in the AccurateRip database
End of status report
==== Log checksum 1F95F4C0049709FAAB79796DE5311B8A105AC779B857A8C4E348659422C87031 ====
 
Содержание индексной карты (.CUE)
REM GENRE Latin
REM DATE 1996
REM DISCID 8B0CCF09
REM COMMENT "ExactAudioCopy v1.0b3"
PERFORMER "Various Artists"
TITLE "Ritmo y Candela II african crossroads"
FILE "Patato - Ritmo y Candela. African Crossroads II. [eac-flac--scans] byDrBull.flac" WAVE
TRACK 01 AUDIO
TITLE "El Lenguaje del Son"
PERFORMER "Various Artists"
INDEX 01 00:00:00
TRACK 02 AUDIO
TITLE "Son de Patato"
PERFORMER "Various Artists"
INDEX 00 06:24:27
INDEX 01 06:27:30
TRACK 03 AUDIO
TITLE "Kora-son"
PERFORMER "Various Artists"
INDEX 00 13:40:50
INDEX 01 13:44:35
TRACK 04 AUDIO
TITLE "Guloya Swing"
PERFORMER "Various Artists"
INDEX 00 20:16:20
INDEX 01 20:20:50
TRACK 05 AUDIO
TITLE "Guajira en el Espacio"
PERFORMER "Various Artists"
INDEX 00 24:45:20
INDEX 01 24:48:42
TRACK 06 AUDIO
TITLE "Sangre de Africa"
PERFORMER "Various Artists"
INDEX 01 27:12:45
TRACK 07 AUDIO
TITLE "Sonando en Cubano"
PERFORMER "Various Artists"
INDEX 00 31:29:05
INDEX 01 31:32:40
TRACK 08 AUDIO
TITLE "Mbula Enoka"
PERFORMER "Senor Blues"
INDEX 00 38:13:37
INDEX 01 38:17:25
TRACK 09 AUDIO
TITLE "Ensalada de Melon, Patato, y Anga"
PERFORMER "Various Artists"
INDEX 00 46:28:45
INDEX 01 46:32:20
 
Состав
Carlos "Patato" Valdés - congas (#1-4,6-9), quinto (#9);
Orestes Vilató - timbales (#1,2,7,8), güiro (#1-3,6), bongó (#3,6), maracas (#8);
Walfredo de los Reyes, Sr. - drums (#1,2,7,8);
Enríque Fernández - baritone (#1,2,4), tenor & alto (#4), soprano (#9) saxes, flute (#2,4,6,8), piccolo (#4), bass clarinet (#9);
Greg Landau - tres (#1), keyboards (#3);
Felix "Fito" Reinoso - vocals (#1), coro (#6);
Lázaro Bages - coro (#1,6);
John Calloway - flute (#1), piano (#8);
Iván "Melón" González - piano (#1-3,5,6,9);
Joe Santiago - bass (#2-4,6,8,9);
Samba Mapangala - vocals (#3,6,8);
Yosvany Terry - alto sax (#3,7), chekeré & bells (#7);
Abdou M'Boup - kora (#3), xalam & tama (#8);
Michael Spiro - bells & chekeré (#4);
Rahsaan Fredericks - bass (#7);
Omar Sosa - piano, chekeré & bells (#7);
Miguel "Angá" Díaz - congas, conga solo, cajón (#9);
John Santos - percussion (#9).
09:35
277
Нет комментариев. Ваш будет первым!