Поиск

(World Fusion, Ethnic Jazz) James Newton - In Venice - 1988, FLAC (tracks+.cue), lossless

(World Fusion, Ethnic Jazz) James Newton - In Venice - 1988, FLAC (tracks+.cue), lossless
♦ James Newton - In Venice ♦
Жанр: World Fusion, Ethnic Jazz
Страна-производитель диска: Germany
Год издания: 1988
Издатель (лейбл): Celestial Harmonies
Номер по каталогу: CD CEL 030/31
Аудиокодек: FLAC (*.flac)
Тип рипа: tracks+.cue
Битрейт аудио: lossless
Продолжительность: 01:15:10
Источник (релизер): Рип с диска.
Наличие сканов в содержимом раздачи: да
Треклист:
01. To Speak of Dreams [08:13]
02. Coltrane Dream [07:42]
03. Angels and Birds [07:20]
04. Chiesa San Lazzaro [08:12]
05. Bartok Dream [04:57]
06. Syrinx [03:04]
07. The Spiritual Suite [17:41]
08. The Death of St John the Baptist [06:03]
09. Venezia a L'Alba [05:06]
10. Of the Most High [06:50]
 
Лог создания рипа
Exact Audio Copy V1.0 beta 3 from 29. August 2011
EAC extraction logfile from 10. November 2013, 15:11
James Newton / James Newton in Venice
Used drive : ATAPI iHAS124 D Adapter: 1 ID: 0
Read mode : Secure
Utilize accurate stream : Yes
Defeat audio cache : Yes
Make use of C2 pointers : No
Read offset correction : 6
Overread into Lead-In and Lead-Out : No
Fill up missing offset samples with silence : Yes
Delete leading and trailing silent blocks : No
Null samples used in CRC calculations : Yes
Used interface : Native Win32 interface for Win NT & 2000
Gap handling : Appended to previous track
Used output format : User Defined Encoder
Selected bitrate : 128 kBit/s
Quality : High
Add ID3 tag : No
Command line compressor : C:\Program Files (x86)\Exact Audio Copy\Flac\flac.exe
Additional command line options : -V -8 -T "Genre=%genre%" -T "Artist=%artist%" -T "Title=%title%" -T "Album=%albumtitle%" -T "Date=%year%" -T "Tracknumber=%tracknr%" -T "Comment=%comment%" %source%
TOC of the extracted CD
Track | Start | Length | Start sector | End sector
---------------------------------------------------------
1 | 0:00.33 | 8:13.00 | 33 | 37007
2 | 8:13.33 | 7:42.00 | 37008 | 71657
3 | 15:55.33 | 7:20.00 | 71658 | 104657
4 | 23:15.33 | 8:12.45 | 104658 | 141602
5 | 31:28.03 | 4:57.30 | 141603 | 163907
6 | 36:25.33 | 3:04.00 | 163908 | 177707
7 | 39:29.33 | 17:41.00 | 177708 | 257282
8 | 57:10.33 | 6:03.00 | 257283 | 284507
9 | 63:13.33 | 5:07.00 | 284508 | 307532
10 | 68:20.33 | 6:50.25 | 307533 | 338307
Track 1
Filename D:\1\01. To Speak of Dreams.wav
Pre-gap length 0:00:02.33
Peak level 60.6 %
Extraction speed 6.3 X
Track quality 99.9 %
Test CRC 1F56F67F
Copy CRC 1F56F67F
Accurately ripped (confidence 3) [8F779096] (AR v2)
Copy OK
Track 2
Filename D:\1\02. Coltrane Dream.wav
Pre-gap length 0:00:04.50
Peak level 38.8 %
Extraction speed 7.9 X
Track quality 100.0 %
Test CRC 5A08EF22
Copy CRC 5A08EF22
Accurately ripped (confidence 3) [00B13726] (AR v2)
Copy OK
Track 3
Filename D:\1\03. Angels and Birds.wav
Pre-gap length 0:00:06.50
Peak level 60.4 %
Extraction speed 8.8 X
Track quality 100.0 %
Test CRC D4FCE390
Copy CRC D4FCE390
Accurately ripped (confidence 3) [C044ABC3] (AR v2)
Copy OK
Track 4
Filename D:\1\04. Chiesa San Lazzaro.wav
Pre-gap length 0:00:05.50
Peak level 43.1 %
Extraction speed 9.7 X
Track quality 100.0 %
Test CRC DEF40330
Copy CRC DEF40330
Accurately ripped (confidence 3) [BACD1DA8] (AR v2)
Copy OK
Track 5
Filename D:\1\05. Bartok Dream.wav
Pre-gap length 0:00:04.20
Peak level 72.4 %
Extraction speed 9.9 X
Track quality 100.0 %
Test CRC 956FD2C9
Copy CRC 956FD2C9
Accurately ripped (confidence 3) [55EAD653] (AR v2)
Copy OK
Track 6
Filename D:\1\06. Syrinx.wav
Pre-gap length 0:00:05.50
Peak level 40.5 %
Extraction speed 9.6 X
Track quality 100.0 %
Test CRC 0138ACFC
Copy CRC 0138ACFC
Accurately ripped (confidence 3) [D16B88A0] (AR v2)
Copy OK
Track 7
Filename D:\1\07. The Spiritual Suite.wav
Pre-gap length 0:00:06.50
Peak level 50.9 %
Extraction speed 12.1 X
Track quality 100.0 %
Test CRC 50B3AACE
Copy CRC 50B3AACE
Accurately ripped (confidence 3) [A76A97B2] (AR v2)
Copy OK
Track 8
Filename D:\1\08. The Death of St. John the Baptist.wav
Pre-gap length 0:00:07.50
Peak level 100.0 %
Extraction speed 12.3 X
Track quality 100.0 %
Test CRC E900FB26
Copy CRC E900FB26
Accurately ripped (confidence 3) [234DD6AB] (AR v2)
Copy OK
Track 9
Filename D:\1\09. Venezia A L'Alba.wav
Pre-gap length 0:00:05.50
Peak level 73.0 %
Extraction speed 12.5 X
Track quality 100.0 %
Test CRC 6E610F50
Copy CRC 6E610F50
Accurately ripped (confidence 3) [7EC7CBD1] (AR v2)
Copy OK
Track 10
Filename D:\1\10. Of the Most High.wav
Pre-gap length 0:00:04.50
Peak level 44.6 %
Extraction speed 5.7 X
Track quality 99.8 %
Test CRC B51752A8
Copy CRC B51752A8
Accurately ripped (confidence 3) [64CC4414] (AR v2)
Copy OK
All tracks accurately ripped
No errors occurred
End of status report
==== Log checksum E929B03EA3E0F0D113C8AD43C588007A0E76D8F7FA895D3E68DE2E8089C9873F ====
 
Содержание индексной карты (.CUE)
REM GENRE Jazz
REM DATE 1988
REM DISCID 99119E0A
REM COMMENT "ExactAudioCopy v1.0b3"
PERFORMER "James Newton"
TITLE "James Newton in Venice"
FILE "01. To Speak of Dreams.wav" WAVE
TRACK 01 AUDIO
TITLE "To Speak of Dreams"
PERFORMER "James Newton"
PREGAP 00:00:33
INDEX 01 00:00:00
INDEX 02 08:04:25
TRACK 02 AUDIO
TITLE "Coltrane Dream"
PERFORMER "James Newton"
INDEX 00 08:08:25
FILE "02. Coltrane Dream.wav" WAVE
INDEX 01 00:00:00
INDEX 02 07:30:25
TRACK 03 AUDIO
TITLE "Angels and Birds"
PERFORMER "James Newton"
INDEX 00 07:35:25
FILE "03. Angels and Birds.wav" WAVE
INDEX 01 00:00:00
INDEX 02 07:09:25
TRACK 04 AUDIO
TITLE "Chiesa San Lazzaro"
PERFORMER "James Newton"
INDEX 00 07:14:25
FILE "04. Chiesa San Lazzaro.wav" WAVE
INDEX 01 00:00:00
INDEX 02 08:03:25
TRACK 05 AUDIO
TITLE "Bartok Dream"
PERFORMER "James Newton"
INDEX 00 08:08:25
FILE "05. Bartok Dream.wav" WAVE
INDEX 01 00:00:00
INDEX 02 04:46:17
TRACK 06 AUDIO
TITLE "Syrinx"
PERFORMER "James Newton"
INDEX 00 04:51:55
FILE "06. Syrinx.wav" WAVE
INDEX 01 00:00:00
INDEX 02 02:52:25
TRACK 07 AUDIO
TITLE "The Spiritual Suite"
PERFORMER "James Newton"
INDEX 00 02:57:25
FILE "07. The Spiritual Suite.wav" WAVE
INDEX 01 00:00:00
INDEX 02 17:26:25
TRACK 08 AUDIO
TITLE "The Death of St. John the Baptist"
PERFORMER "James Newton"
INDEX 00 17:33:25
FILE "08. The Death of St. John the Baptist.wav" WAVE
INDEX 01 00:00:00
INDEX 02 05:51:25
TRACK 09 AUDIO
TITLE "Venezia A L'Alba"
PERFORMER "James Newton"
INDEX 00 05:57:25
FILE "09. Venezia A L'Alba.wav" WAVE
INDEX 01 00:00:00
INDEX 02 04:59:25
TRACK 10 AUDIO
TITLE "Of the Most High"
PERFORMER "James Newton"
INDEX 00 05:02:25
FILE "10. Of the Most High.wav" WAVE
INDEX 01 00:00:00
INDEX 02 06:46:25
13:48
256
Нет комментариев. Ваш будет первым!