Поиск

(Afro-Cuban Jazz, Cool, Latin Jazz) Cal Tjader - Black Hawk Nights (1958-1959) - 2000, FLAC (tracks+.cue), lossless

(Afro-Cuban Jazz, Cool, Latin Jazz) Cal Tjader - Black Hawk Nights (1958-1959) - 2000, FLAC (tracks+.cue), lossless
Треклист:
Cal Tjader - Black Hawk Nights
Жанр: Afro-Cuban Jazz, Cool, Latin Jazz
Страна-производитель диска: США
Год издания: 2000
Издатель (лейбл): Fantasy
Номер по каталогу: FCD-24755-2
Аудиокодек: FLAC (*.flac)
Тип рипа: tracks+.cue
Битрейт аудио: lossless
Продолжительность: 76:21
Источник (релизер): lyzibang (what)
Наличие сканов в содержимом раздачи: нет
Треклист:
01. Stompin' at the Savoy (Goodman-Razaf-Sampson-Webb) - 5:23
02. I Hadn't Anyone Till You (Noble) - 8:08
03. Bill B. (Tjader) - 12:06
04. Blue and Sentimental (Basie-David-Livingston) - 3:05
05. I Love Paris (Porter) - 4:34
06. A Night in Tunisia (Gillespie-Paparelli) - 9:15
07. Autumn Leaves (Kosma-Mercer-Prevert) - 8:40
08. My Romance (Hart-Rodgers) - 5:11
09. Theme from "The Bad and the Beautiful" (Raksin) - 3:46
10. You Stepped Out of a Dream (Brown-Kahn) - 5:31
11. Raccoon Straits (Tjader) - 6:19
12. Mambo Terrifico (Lozano) - 4:23
 
Лог создания рипа
Exact Audio Copy V1.0 beta 3 from 29. August 2011
EAC extraction logfile from 7. November 2013, 13:36
Cal Tjader / Black Hawk Nights
Used drive : MATSHITADVD+-RW UJ8C2 Adapter: 1 ID: 0
Read mode : Secure
Utilize accurate stream : Yes
Defeat audio cache : Yes
Make use of C2 pointers : No
Read offset correction : 103
Overread into Lead-In and Lead-Out : No
Fill up missing offset samples with silence : Yes
Delete leading and trailing silent blocks : No
Null samples used in CRC calculations : Yes
Used interface : Native Win32 interface for Win NT & 2000
Gap handling : Appended to previous track
Used output format : Internal WAV Routines
Sample format : 44.100 Hz; 16 Bit; Stereo
TOC of the extracted CD
Track | Start | Length | Start sector | End sector
---------------------------------------------------------
1 | 0:00.00 | 5:23.20 | 0 | 24244
2 | 5:23.20 | 8:08.05 | 24245 | 60849
3 | 13:31.25 | 12:05.60 | 60850 | 115284
4 | 25:37.10 | 3:05.00 | 115285 | 129159
5 | 28:42.10 | 4:34.10 | 129160 | 149719
6 | 33:16.20 | 9:15.30 | 149720 | 191374
7 | 42:31.50 | 8:40.15 | 191375 | 230389
8 | 51:11.65 | 5:11.33 | 230390 | 253747
9 | 56:23.23 | 3:46.10 | 253748 | 270707
10 | 60:09.33 | 5:30.72 | 270708 | 295529
11 | 65:40.30 | 6:19.10 | 295530 | 323964
12 | 71:59.40 | 4:23.33 | 323965 | 343722
Track 1
Filename C:\Cal Tjader Black Hawk Nights (2000 Reissue Fantasy FCD-24755-2)\01 - Stompin' at the Savoy.wav
Pre-gap length 0:00:02.00
Peak level 99.2 %
Extraction speed 2.7 X
Track quality 100.0 %
Test CRC 603F656D
Copy CRC 603F656D
Accurately ripped (confidence 1) [30E2C1E9] (AR v1)
Copy OK
Track 2
Filename C:\Cal Tjader Black Hawk Nights (2000 Reissue Fantasy FCD-24755-2)\02 - I Hadn't Anyone Till You.wav
Pre-gap length 0:00:02.89
Peak level 94.4 %
Extraction speed 3.2 X
Track quality 100.0 %
Test CRC 75DCAB82
Copy CRC 75DCAB82
Accurately ripped (confidence 1) [930C2E59] (AR v1)
Copy OK
Track 3
Filename C:\Cal Tjader Black Hawk Nights (2000 Reissue Fantasy FCD-24755-2)\03 - Bill B..wav
Pre-gap length 0:00:02.93
Peak level 100.0 %
Extraction speed 3.8 X
Track quality 100.0 %
Test CRC 265B5C84
Copy CRC 265B5C84
Accurately ripped (confidence 1) [EC92E182] (AR v1)
Copy OK
Track 4
Filename C:\Cal Tjader Black Hawk Nights (2000 Reissue Fantasy FCD-24755-2)\04 - Blue and Sentimental.wav
Pre-gap length 0:00:02.86
Peak level 95.3 %
Extraction speed 3.6 X
Track quality 100.0 %
Test CRC C484005F
Copy CRC C484005F
Accurately ripped (confidence 1) [7BF49999] (AR v1)
Copy OK
Track 5
Filename C:\Cal Tjader Black Hawk Nights (2000 Reissue Fantasy FCD-24755-2)\05 - I Love Paris.wav
Pre-gap length 0:00:02.93
Peak level 99.7 %
Extraction speed 4.0 X
Track quality 100.0 %
Test CRC 1A0C7833
Copy CRC 1A0C7833
Accurately ripped (confidence 1) [5295766F] (AR v1)
Copy OK
Track 6
Filename C:\Cal Tjader Black Hawk Nights (2000 Reissue Fantasy FCD-24755-2)\06 - A Night in Tunisia.wav
Pre-gap length 0:00:03.02
Peak level 98.6 %
Extraction speed 3.9 X
Track quality 99.9 %
Test CRC E6368E6E
Copy CRC E6368E6E
Accurately ripped (confidence 1) [64CF590F] (AR v1)
Copy OK
Track 7
Filename C:\Cal Tjader Black Hawk Nights (2000 Reissue Fantasy FCD-24755-2)\07 - Autumn Leaves.wav
Pre-gap length 0:00:03.80
Peak level 86.7 %
Extraction speed 4.1 X
Track quality 99.9 %
Test CRC ACE433A9
Copy CRC ACE433A9
Accurately ripped (confidence 1) [637A43AD] (AR v1)
Copy OK
Track 8
Filename C:\Cal Tjader Black Hawk Nights (2000 Reissue Fantasy FCD-24755-2)\08 - My Romance.wav
Pre-gap length 0:00:03.46
Peak level 90.8 %
Extraction speed 3.7 X
Track quality 99.9 %
Test CRC D7CE3CD4
Copy CRC D7CE3CD4
Accurately ripped (confidence 1) [EA3A5670] (AR v1)
Copy OK
Track 9
Filename C:\Cal Tjader Black Hawk Nights (2000 Reissue Fantasy FCD-24755-2)\09 - Theme from The Bad and the Beautiful.wav
Pre-gap length 0:00:03.60
Peak level 68.7 %
Extraction speed 4.8 X
Track quality 100.0 %
Test CRC A26B286D
Copy CRC A26B286D
Accurately ripped (confidence 1) [9376DD49] (AR v1)
Copy OK
Track 10
Filename C:\Cal Tjader Black Hawk Nights (2000 Reissue Fantasy FCD-24755-2)\10 - You Stepped Out of the Blue.wav
Pre-gap length 0:00:02.86
Peak level 94.0 %
Extraction speed 5.2 X
Track quality 100.0 %
Test CRC F984B852
Copy CRC F984B852
Accurately ripped (confidence 1) [60864B63] (AR v1)
Copy OK
Track 11
Filename C:\Cal Tjader Black Hawk Nights (2000 Reissue Fantasy FCD-24755-2)\11 - Raccoon Straits.wav
Pre-gap length 0:00:03.36
Peak level 99.9 %
Extraction speed 4.3 X
Track quality 99.9 %
Test CRC A4380DF6
Copy CRC A4380DF6
Accurately ripped (confidence 1) [DDB4138F] (AR v1)
Copy OK
Track 12
Filename C:\Cal Tjader Black Hawk Nights (2000 Reissue Fantasy FCD-24755-2)\12 - Mambo Terrifico.wav
Pre-gap length 0:00:03.49
Peak level 100.0 %
Extraction speed 5.4 X
Track quality 100.0 %
Test CRC AD6BE4AD
Copy CRC AD6BE4AD
Accurately ripped (confidence 1) [DF1AF761] (AR v1)
Copy OK
All tracks accurately ripped
No errors occurred
End of status report
==== Log checksum 97EB66EF9C3AF1F539EA3030B27DC57CC628A3C3EB4ABF8FD7DA5FBE18589FF0 ====
 
Содержание индексной карты (.CUE)
REM GENRE Jazz
REM DATE 1959
REM DISCID A911E60C
REM COMMENT "ExactAudioCopy v1.0b3"
PERFORMER "Cal Tjader"
TITLE "Black Hawk Nights"
FILE "01 - Stompin' at the Savoy.wav" WAVE
TRACK 01 AUDIO
TITLE "Stompin' at the Savoy"
PERFORMER "Cal Tjader"
INDEX 01 00:00:00
TRACK 02 AUDIO
TITLE "I Hadn't Anyone Till You"
PERFORMER "Cal Tjader"
INDEX 00 05:20:28
FILE "02 - I Hadn't Anyone Till You.wav" WAVE
INDEX 01 00:00:00
TRACK 03 AUDIO
TITLE "Bill B."
PERFORMER "Cal Tjader"
INDEX 00 08:05:10
FILE "03 - Bill B..wav" WAVE
INDEX 01 00:00:00
TRACK 04 AUDIO
TITLE "Blue and Sentimental"
PERFORMER "Cal Tjader"
INDEX 00 12:02:70
FILE "04 - Blue and Sentimental.wav" WAVE
INDEX 01 00:00:00
TRACK 05 AUDIO
TITLE "I Love Paris"
PERFORMER "Cal Tjader"
INDEX 00 03:02:05
FILE "05 - I Love Paris.wav" WAVE
INDEX 01 00:00:00
TRACK 06 AUDIO
TITLE "A Night in Tunisia"
PERFORMER "Cal Tjader"
INDEX 00 04:31:08
FILE "06 - A Night in Tunisia.wav" WAVE
INDEX 01 00:00:00
TRACK 07 AUDIO
TITLE "Autumn Leaves"
PERFORMER "Cal Tjader"
INDEX 00 09:11:45
FILE "07 - Autumn Leaves.wav" WAVE
INDEX 01 00:00:00
TRACK 08 AUDIO
TITLE "My Romance"
PERFORMER "Cal Tjader"
INDEX 00 08:36:55
FILE "08 - My Romance.wav" WAVE
INDEX 01 00:00:00
TRACK 09 AUDIO
TITLE "Theme from 'The Bad and the Beautiful'"
PERFORMER "Cal Tjader"
INDEX 00 05:07:63
FILE "09 - Theme from 'The Bad and the Beautiful'.wav" WAVE
INDEX 01 00:00:00
TRACK 10 AUDIO
TITLE "You Stepped Out of a Dream"
PERFORMER "Cal Tjader"
INDEX 00 03:43:20
FILE "10 - You Stepped Out of a Dream.wav" WAVE
INDEX 01 00:00:00
TRACK 11 AUDIO
TITLE "Raccoon Straits"
PERFORMER "Cal Tjader"
INDEX 00 05:27:45
FILE "11 - Raccoon Straits.wav" WAVE
INDEX 01 00:00:00
TRACK 12 AUDIO
TITLE "Mambo Terrifico"
PERFORMER "Cal Tjader"
INDEX 00 06:15:48
FILE "12 - Mambo Terrifico.wav" WAVE
INDEX 01 00:00:00
 
Отчет CUETools
[CUETools log; Date: 09.11.2013 0:58:46; Version: 2.1.4]
[CTDB TOCID: ECy6JWyeLbiVS2.xv3nkfVbIAmA-] found.
Track | CTDB Status
1 | (2/2) Accurately ripped
2 | (2/2) Accurately ripped
3 | (2/2) Accurately ripped
4 | (2/2) Accurately ripped
5 | (2/2) Accurately ripped
6 | (2/2) Accurately ripped
7 | (2/2) Accurately ripped
8 | (2/2) Accurately ripped
9 | (2/2) Accurately ripped
10 | (2/2) Accurately ripped
11 | (2/2) Accurately ripped
12 | (2/2) Accurately ripped
[AccurateRip ID: 002472db-014ff29b-a911e60c] found.
Track [ CRC | V2 ] Status
01 [30e2c1e9|cb7b8efb] (1+0/1) Accurately ripped
02 [930c2e59|c4815f52] (1+0/1) Accurately ripped
03 [ec92e182|7a409957] (1+0/1) Accurately ripped
04 [7bf49999|0d62d834] (1+0/1) Accurately ripped
05 [5295766f|9e6c3033] (1+0/1) Accurately ripped
06 [64cf590f|78aa464b] (1+0/1) Accurately ripped
07 [637a43ad|2edbff73] (1+0/1) Accurately ripped
08 [ea3a5670|5f054945] (1+0/1) Accurately ripped
09 [9376dd49|339d8eb1] (1+0/1) Accurately ripped
10 [60864b63|a20568e5] (1+0/1) Accurately ripped
11 [ddb4138f|ffa12ea5] (1+0/1) Accurately ripped
12 [df1af761|d45c6ac6] (1+0/1) Accurately ripped
Track Peak [ CRC32 ] [W/O NULL] [ LOG ]
-- 100,0 [B54B837A] [A5DC3D43]
01 99,2 [603F656D] [9F5098F2] CRC32
02 94,4 [75DCAB82] [86F5CC05] CRC32
03 100,0 [265B5C84] [833E38AF] CRC32
04 95,3 [C484005F] [AA376AF9] CRC32
05 99,7 [1A0C7833] [A30E8689] CRC32
06 98,6 [E6368E6E] [E360F68B] CRC32
07 86,7 [ACE433A9] [AE332DC0] CRC32
08 90,8 [D7CE3CD4] [F1E411B7] CRC32
09 68,7 [A26B286D] [AE50EFB0] CRC32
10 94,0 [F984B852] [9A2FA1D0] CRC32
11 99,9 [A4380DF6] [7F48D36D] CRC32
12 100,0 [AD6BE4AD] [152745CE] CRC32
 
Review by Richie Unterberger
In the late '50s, Cal Tjader and his bands played lengthy engagements at the Black Hawk jazz club in San Francisco. This CD combines almost everything from two albums he recorded there in the late '50s: the entirety of A Night at the Blackhawk, and all songs save one from Live and Direct. This is on the mellow side for Tjader, even by the vibraphonist's standards; if A Night at the Blackhawk is low-energy, Live and Direct is positively sleepy. A Night at the Blackhawk employs an all-star sextet including Willie Bobo on drums, Mongo Santamaria on congas, and Vince Guaraldi on piano. Despite the presence of Bobo and Santamaria though, it's only in the Latin-Afro-Cuban mood about half the time. That's heard on the mambo version of "Stompin' at the Savoy," "I Love Paris," and Dizzy Gillespie's "A Night in Tunisia," the last of which is of course a natural for the Latin-jazz treatment; otherwise it's pretty inside, straight-ahead stuff. Although Live and Direct was billed to the Cal Tjader Quintet, it in fact usually features just a quartet of Tjader, Lonnie Hewitt on piano, Victor Venegas on bass, and Willie Bobo on drums. The leader doesn't even play on "My Romance," a showcase for Hewitt. Latin-Afro-Cuban-jazz fusion is barely evident on the laidback Live and Direct session, except for the high-spirited finale. Actually, the Live and Direct set is rather too much on the polite, even sleepy side: the kind of thing you'd put on to fall asleep to in the wee hours. The pace does pick up for Live and Direct's only Tjader original, "Raccoon Straits," and "Mambo Terrifico," the number that has Santamaria and Lozano on board.
 
Состав
#1-6 (A Night at the Black Hawk):
Jose "Chombo" Silva - tenor saxophone
Cal Tjader - vibraphone
Vince Guaraldi - piano
Al McKibbon - bass
Willie Bobo - drums, timbales
Mongo Santamaria - congas
#7-12 (Live and Direct):
Cal Tjader - vibraphone
Lonnie Hewitt - piano
Willie Bobo - drums, timbales
Victor Venegas - bass
Rolando Lozano - flute
Mongo Santamaria - congas
Recorded live at "The Blackhawk", San Francisco, CA in 1958-1959.
Since maximum playing time of a single CD could not accommodate the entire length of both original albums, it was necessary to delete "The Continental" from "Live and Direct" LP.
13:48
341
Нет комментариев. Ваш будет первым!