Поиск

(World Fusion, Ethnic Jazz) [CD] Theodosii Spassov & Heavenly Strings - 2010, FLAC (image+.cue), lossless

(World Fusion, Ethnic Jazz) [CD] Theodosii Spassov & Heavenly Strings - 2010, FLAC (image+.cue), lossless
Theodosii Spassov & Heavenly Strings / Theodosii Spassov & Heavenly Strings
Жанр: World Fusion, Ethnic Jazz
Носитель: CD
Страна-производитель диска (релиза): Bulgaria
Год издания: 2010
Издатель (лейбл): 88 Studio
Номер по каталогу: MK 55003
Страна исполнителя (группы): Bulgaria
Аудиокодек: FLAC (*.flac)
Тип рипа: image+.cue
Битрейт аудио: lossless
Продолжительность: 00:50:36
Источник (релизер): собственый диск
Наличие сканов в содержимом раздачи: да
Треклист:
01. Следвай ме / Follow Me
02. Островът на козите / The Goat's Island
03. Златоград / Gold Town
04. Джаной / Janoy
05. Тамир ага / (Tamir Agha)
06. Елено / Eleno
07. Огнен празник / Fire Feast
08. Пуста младост / Pusta Mladost
09. Пазач на души / The Warden Of Souls
10. Йовка / Iovka
11. Цигански танц / Gipsy Dance
12. Нещо прекрасно / Something Beautiful
13. Сей, Боб / Say Bob
14. Замисленият ангел / Toughtful Angel
15. И в рая има ад / And Heaven Is Hell
 
Лог создания рипа

 
Отчёт EAC
Exact Audio Copy V0.99 prebeta 5 from 4. May 2009
Отчет на EAC за извличане, извършено на 9. Януари 2017, 23:57
Теодосий Спасов и Небесни струни / Теодосий Спасов и Небесни струни
Използвано устройство : HL-DT-STDVDRAM GH24NSB0 Adapter: 4 ID: 0
Режим на четене : Надежден
Използване на точен поток : Да
Изключено аудио кеширане : Да
Използване на C2 показалци : Не
Офсет корекция при четене : 6
Препрочитане на секторите Lead-In и Lead-Out : Не
Запълване на липсващи офсет семпли с тишина : Да
Изтриване на начални и крайни блокове тишина : Не
Използване на нулеви семпли при CRC изчисления : Не
Използван интерфейс : Вграден Win32 интерфейс за Win NT & 2000
Използван изходен формат : Енкодер Дефиниран от Потребителя
Избран битрейт : 768 kBit/s
Качество : Високо
Добави ID3 таг : Не
Конзолен компресор : C:\Program Files (x86)\Exact Audio Copy\Flac\win32\flac.exe
Допълнителни конзолни опции : -8 -T "artist=%a" -T "title=%t" -T "album=%g" -T "date=%y" -T "tracknumber=%n" -T "genre=%m" %s
TOC на извлечения CD
Трак | Начало | Дължина | Начален сектор | Краен сектор
------------------------------------------------------------
1 | 0:00.00 | 2:06.11 | 0 | 9460
2 | 2:06.11 | 4:40.31 | 9461 | 30491
3 | 6:46.42 | 1:48.07 | 30492 | 38598
4 | 8:34.49 | 2:49.22 | 38599 | 51295
5 | 11:23.71 | 0:53.52 | 51296 | 55322
6 | 12:17.48 | 3:02.01 | 55323 | 68973
7 | 15:19.49 | 4:40.51 | 68974 | 90024
8 | 20:00.25 | 5:31.41 | 90025 | 114890
9 | 25:31.66 | 1:32.00 | 114891 | 121790
10 | 27:03.66 | 3:40.71 | 121791 | 138361
11 | 30:44.62 | 4:25.31 | 138362 | 158267
12 | 35:10.18 | 4:44.03 | 158268 | 179570
13 | 39:54.21 | 4:01.73 | 179571 | 197718
14 | 43:56.19 | 2:53.38 | 197719 | 210731
15 | 46:49.57 | 3:46.19 | 210732 | 227700
Състояние и грешки на диапазон
Избран диапазон
Име на файл F:\Music\FLAC\Theodosii Spassov & Heavenly Strings (Теодосий Спасов и Небесни струни) 2010 FLAC\Теодосий Спасов и Небесни струни.wav
Пиково ниво 97.7 %
Качество на диапазона 100.0 %
Тестван CRC 47A2D2D2
Копиран CRC 47A2D2D2
Копиране OK
Няма грешки
Край на отчета
 
Содержание индексной карты (.CUE)
REM GENRE "Jazz / Ethno / World"
REM DATE 2010
REM DISCID C20BDC0F
REM COMMENT "ExactAudioCopy v0.99pb5"
PERFORMER "Теодосий Спасов и Небесни струни"
TITLE "Теодосий Спасов и Небесни струни"
FILE "Теодосий Спасов и Небесни струни.flac" WAVE
TRACK 01 AUDIO
TITLE "Следвай ме"
PERFORMER "Теодосий Спасов и Небесни струни"
INDEX 01 00:00:00
TRACK 02 AUDIO
TITLE "Островът на козите"
PERFORMER "Теодосий Спасов и Небесни струни"
INDEX 00 02:04:11
INDEX 01 02:06:11
TRACK 03 AUDIO
TITLE "Златоград"
PERFORMER "Теодосий Спасов и Небесни струни"
INDEX 00 06:44:42
INDEX 01 06:46:42
TRACK 04 AUDIO
TITLE "Джаной"
PERFORMER "Теодосий Спасов и Небесни струни"
INDEX 00 08:32:49
INDEX 01 08:34:49
TRACK 05 AUDIO
TITLE "Тамир ага"
PERFORMER "Теодосий Спасов и Небесни струни"
INDEX 00 11:21:71
INDEX 01 11:23:71
TRACK 06 AUDIO
TITLE "Елено"
PERFORMER "Теодосий Спасов и Небесни струни"
INDEX 00 12:15:48
INDEX 01 12:17:48
TRACK 07 AUDIO
TITLE "Огнен празник"
PERFORMER "Теодосий Спасов и Небесни струни"
INDEX 00 15:17:49
INDEX 01 15:19:49
TRACK 08 AUDIO
TITLE "Пуста младост"
PERFORMER "Теодосий Спасов и Небесни струни"
INDEX 00 19:58:25
INDEX 01 20:00:25
TRACK 09 AUDIO
TITLE "Пазач на души"
PERFORMER "Теодосий Спасов и Небесни струни"
INDEX 00 25:29:66
INDEX 01 25:31:66
TRACK 10 AUDIO
TITLE "Йовка"
PERFORMER "Теодосий Спасов и Небесни струни"
INDEX 00 27:01:66
INDEX 01 27:03:66
TRACK 11 AUDIO
TITLE "Цигански танц"
PERFORMER "Теодосий Спасов и Небесни струни"
INDEX 00 30:42:62
INDEX 01 30:44:62
TRACK 12 AUDIO
TITLE "Нещо прекрасно"
PERFORMER "Теодосий Спасов и Небесни струни"
INDEX 00 35:08:18
INDEX 01 35:10:18
TRACK 13 AUDIO
TITLE "Say Bob"
PERFORMER "Теодосий Спасов и Небесни струни"
INDEX 00 39:52:21
INDEX 01 39:54:21
TRACK 14 AUDIO
TITLE "Замисленият ангел"
PERFORMER "Теодосий Спасов и Небесни струни"
 
Об исполнителе (группе)
Талантливый музыкант родился в 1961 году в Болгарии. Он виртуозно владеет кавалом (игрой на деревянной флейте), является известным во всём мире композитором. Для его исполнения свойственно объединять элементы из разных музыкальных жанровых направлений. В его творениях мастерски переплетается джаз, народность и классика. Симфонические произведения также входят в репертуар Теодосия Спасова, кроме того талантливым музыкантом созданы и исполнены пьесы для кавала, музыкальные произведения к кинофильмам.
Музыкант известен выступлениями в разных странах с болгарскими симфоническими оркестрами и прочими музыкальными ансамблями. Начало его карьеры было помечено признанием наиболее известных болгарских народных и джазовых исполнителей. В 80-е годы прошлого века он выступал с фольклорным кларнетистом Иво Папазовым-Ибряма, джазовым пианистом Милчо Левиевым и многими другими. В течение лет Теодосий Спасов осуществил многочисленные международные проекты – с саксофонистом Дейвом Либманом, басистом Гленом Муром, барабанщиком Мино Синелу и рядом известных музыкантов нашей современности. Три года Теодосий Спасов участвовал и во всемирно известном ирландском музыкально-танцевальном шоу “Riverdance”. Композитором выпущено более чем 30 записей. Теодосий Спасов является обладателем множества престижных наград. Среди них почётный знак «Золотой век», высшая награда министерства культуры Болгарии. На 16 сентября 2015 г. был удостоен с звания «Артист ЮНЕСКО за мир».
 
Состав
Теодосий Спасов и Небесни струни
Теодосий Спасов - кавал
Доротея Димитрова -- първа цигулка
Ана Иванова -- втора цигулка
Михаела Павлова -- виола
Йоланта Делибозова -- виолончело
Смила Стоева -- ударни инструменти
22:57
346
Нет комментариев. Ваш будет первым!