Поиск

(World Fusion, Ethnic Jazz) [CD] Poncho Sanchez - Conga Blue - 1996, FLAC (tracks+.cue), lossless

(World Fusion, Ethnic Jazz) [CD] Poncho Sanchez - Conga Blue - 1996, FLAC (tracks+.cue), lossless
Треклист:
• Poncho Sanchez - Conga Blue •
Жанр: World Fusion, Ethnic Jazz
Носитель: CD
Страна-производитель диска: USA
Год издания: 1996
Издатель (лейбл): Concord
Номер по каталогу: CCD-4726
Аудиокодек: FLAC (*.flac)
Тип рипа: tracks+.cue
Битрейт аудио: lossless
Продолжительность: 01:00:59
Источник (релизер): LittlerU
Наличие сканов в содержимом раздачи: да
Треклист:
01. Black Stockings (Hubert Laws, Jr.) [05:24]
02. Besame Mama (Mongo Santamaria) [06:35]
03. Mambo de Cuco (Nicholas Martinez) [06:51]
04. Conga Blue (Billy Mure) [07:54]
05. Dulce Amor (Rodgers Grant) [05:05]
06. Manila (with Mongo Santamaria) [05:44]
07. Watermelon Man (Herbie Hancock) [03:46]
08. Happy Now (Mongo Santamaria) [07:02]
09. Mon Pa Mon Po (CD only) (Poncho Sanchez) [06:53]
10. Para Ti (Mongo Santamaria) [05:37]
 
Лог создания рипа
Exact Audio Copy V1.0 beta 1 from 15. November 2010
EAC extraction logfile from 17. April 2011, 12:38
Poncho Sanchez / Conga Blue
Used drive : HL-DT-STDVDRAM GSA-U10N Adapter: 1 ID: 0
Read mode : Secure
Utilize accurate stream : Yes
Defeat audio cache : Yes
Make use of C2 pointers : No
Read offset correction : 667
Overread into Lead-In and Lead-Out : No
Fill up missing offset samples with silence : Yes
Delete leading and trailing silent blocks : No
Null samples used in CRC calculations : Yes
Used interface : Native Win32 interface for Win NT & 2000
Gap handling : Appended to previous track
Used output format : User Defined Encoder
Selected bitrate : 896 kBit/s
Quality : High
Add ID3 tag : No
Command line compressor : C:\Program Files\Exact Audio Copy\FLAC\FLAC.EXE
Additional command line options : -8 -V -T "ARTIST=%a" -T "TITLE=%t" -T "ALBUM=%g" -T "DATE=%y" -T "TRACKNUMBER=%n" -T "TOTALTRACKS=%x" -T "GENRE=%m" -T "ALBUMARTIST=%v" -T "ALBUM ARTIST=%v" -T "COMMENT=EAC Secure Mode, Test & Copy, AccurateRip, FLAC -8" %s
TOC of the extracted CD
Track | Start | Length | Start sector | End sector
---------------------------------------------------------
1 | 0:00.00 | 5:24.72 | 0 | 24371
2 | 5:24.72 | 6:35.38 | 24372 | 54034
3 | 12:00.35 | 6:51.62 | 54035 | 84921
4 | 18:52.22 | 7:54.20 | 84922 | 120491
5 | 26:46.42 | 5:05.30 | 120492 | 143396
6 | 31:51.72 | 5:44.13 | 143397 | 169209
7 | 37:36.10 | 3:46.17 | 169210 | 186176
8 | 41:22.27 | 7:02.60 | 186177 | 217886
9 | 48:25.12 | 6:53.23 | 217887 | 248884
10 | 55:18.35 | 5:37.50 | 248885 | 274209
Track 1
Filename D:\Temp\Poncho Sanchez - Conga Blue (1996) [FLAC] {CCD-4726}\01 - Black Stockings (Hubert Laws, Jr.).wav
Pre-gap length 0:00:02.00
Peak level 100.0 %
Extraction speed 1.3 X
Track quality 100.0 %
Test CRC 8307C77E
Copy CRC 8307C77E
Cannot be verified as accurate (confidence 11) [59E30C12], AccurateRip returned [6A25D54A]
Copy OK
Track 2
Filename D:\Temp\Poncho Sanchez - Conga Blue (1996) [FLAC] {CCD-4726}\02 - Besame Mama (Mongo Santamaria).wav
Pre-gap length 0:00:00.45
Peak level 100.0 %
Extraction speed 1.4 X
Track quality 99.9 %
Test CRC 14FA64D0
Copy CRC 14FA64D0
Cannot be verified as accurate (confidence 11) [CC065113], AccurateRip returned [8CCEF487]
Copy OK
Track 3
Filename D:\Temp\Poncho Sanchez - Conga Blue (1996) [FLAC] {CCD-4726}\03 - Mambo de Cuco (Nicholas Martinez).wav
Pre-gap length 0:00:02.30
Peak level 100.0 %
Extraction speed 1.8 X
Track quality 100.0 %
Test CRC 12F7FFE6
Copy CRC 12F7FFE6
Cannot be verified as accurate (confidence 11) [919780D1], AccurateRip returned [2BA1D555]
Copy OK
Track 4
Filename D:\Temp\Poncho Sanchez - Conga Blue (1996) [FLAC] {CCD-4726}\04 - Conga Blue (Billy Mure).wav
Pre-gap length 0:00:00.57
Peak level 100.0 %
Extraction speed 2.0 X
Track quality 100.0 %
Test CRC 1317A554
Copy CRC 1317A554
Cannot be verified as accurate (confidence 11) [97416E3F], AccurateRip returned [68AD8D0D]
Copy OK
Track 5
Filename D:\Temp\Poncho Sanchez - Conga Blue (1996) [FLAC] {CCD-4726}\05 - Dulce Amor (Rodgers Grant).wav
Pre-gap length 0:00:00.35
Peak level 99.6 %
Extraction speed 2.1 X
Track quality 100.0 %
Test CRC 5FD73564
Copy CRC 5FD73564
Cannot be verified as accurate (confidence 11) [DBC79ECF], AccurateRip returned [3BCAA565]
Copy OK
Track 6
Filename D:\Temp\Poncho Sanchez - Conga Blue (1996) [FLAC] {CCD-4726}\06 - Manila (with Mongo Santamaria).wav
Pre-gap length 0:00:01.25
Peak level 100.0 %
Extraction speed 2.3 X
Track quality 100.0 %
Test CRC 1968A848
Copy CRC 1968A848
Cannot be verified as accurate (confidence 11) [4EFCE504], AccurateRip returned [A793E45E]
Copy OK
Track 7
Filename D:\Temp\Poncho Sanchez - Conga Blue (1996) [FLAC] {CCD-4726}\07 - Watermelon Man (Herbie Hancock).wav
Pre-gap length 0:00:00.28
Peak level 100.0 %
Extraction speed 2.3 X
Track quality 100.0 %
Test CRC 9DFED7AF
Copy CRC 9DFED7AF
Cannot be verified as accurate (confidence 11) [3FC9630A], AccurateRip returned [F91FE50C]
Copy OK
Track 8
Filename D:\Temp\Poncho Sanchez - Conga Blue (1996) [FLAC] {CCD-4726}\08 - Happy Now (Mongo Santamaria).wav
Pre-gap length 0:00:00.20
Peak level 100.0 %
Extraction speed 2.5 X
Track quality 100.0 %
Test CRC D3D02886
Copy CRC D3D02886
Cannot be verified as accurate (confidence 11) [393CEDEA], AccurateRip returned [C348E204]
Copy OK
Track 9
Filename D:\Temp\Poncho Sanchez - Conga Blue (1996) [FLAC] {CCD-4726}\09 - Mon Pa Mon Po (CD only) (Poncho Sanchez).wav
Pre-gap length 0:00:01.12
Peak level 100.0 %
Extraction speed 2.7 X
Track quality 100.0 %
Test CRC CB3E03D8
Copy CRC CB3E03D8
Cannot be verified as accurate (confidence 9) [24C1525A], AccurateRip returned [898B177E]
Copy OK
Track 10
Filename D:\Temp\Poncho Sanchez - Conga Blue (1996) [FLAC] {CCD-4726}\10 - Para Ti (Mongo Santamaria).wav
Pre-gap length 0:00:01.33
Peak level 100.0 %
Extraction speed 2.7 X
Track quality 100.0 %
Test CRC 89554F37
Copy CRC 89554F37
Cannot be verified as accurate (confidence 10) [9364D40F], AccurateRip returned [1ADE7E09]
Copy OK
No tracks could be verified as accurate
You may have a different pressing from the one(s) in the database
No errors occurred
End of status report
==== Log checksum C23515B4BD20C65DE62A969AE01F1CB8DB27019FD731391ED05798CCD04BB2C7 ====
 
Содержание индексной карты (.CUE)
REM GENRE "Jazz - Cuban Jazz"
REM DATE 1996
REM DISCID 7B0E480A
REM COMMENT "ExactAudioCopy v1.0b1"
PERFORMER "Poncho Sanchez"
TITLE "Conga Blue"
FILE "01 - Black Stockings (Hubert Laws, Jr.).wav" WAVE
TRACK 01 AUDIO
TITLE "Black Stockings (Hubert Laws, Jr.)"
PERFORMER "Poncho Sanchez"
INDEX 01 00:00:00
TRACK 02 AUDIO
TITLE "Besame Mama (Mongo Santamaria)"
PERFORMER "Poncho Sanchez"
INDEX 00 05:24:27
FILE "02 - Besame Mama (Mongo Santamaria).wav" WAVE
INDEX 01 00:00:00
TRACK 03 AUDIO
TITLE "Mambo de Cuco (Nicholas Martinez)"
PERFORMER "Poncho Sanchez"
INDEX 00 06:33:08
FILE "03 - Mambo de Cuco (Nicholas Martinez).wav" WAVE
INDEX 01 00:00:00
TRACK 04 AUDIO
TITLE "Conga Blue (Billy Mure)"
PERFORMER "Poncho Sanchez"
INDEX 00 06:51:05
FILE "04 - Conga Blue (Billy Mure).wav" WAVE
INDEX 01 00:00:00
TRACK 05 AUDIO
TITLE "Dulce Amor (Rodgers Grant)"
PERFORMER "Poncho Sanchez"
INDEX 00 07:53:60
FILE "05 - Dulce Amor (Rodgers Grant).wav" WAVE
INDEX 01 00:00:00
TRACK 06 AUDIO
TITLE "Manila (with Mongo Santamaria)"
PERFORMER "Poncho Sanchez"
INDEX 00 05:04:05
FILE "06 - Manila (with Mongo Santamaria).wav" WAVE
INDEX 01 00:00:00
TRACK 07 AUDIO
TITLE "Watermelon Man (Herbie Hancock)"
PERFORMER "Poncho Sanchez"
INDEX 00 05:43:60
FILE "07 - Watermelon Man (Herbie Hancock).wav" WAVE
INDEX 01 00:00:00
TRACK 08 AUDIO
TITLE "Happy Now (Mongo Santamaria)"
PERFORMER "Poncho Sanchez"
INDEX 00 03:45:72
FILE "08 - Happy Now (Mongo Santamaria).wav" WAVE
INDEX 01 00:00:00
TRACK 09 AUDIO
TITLE "Mon Pa Mon Po (CD only) (Poncho Sanchez)"
PERFORMER "Poncho Sanchez"
INDEX 00 07:01:48
FILE "09 - Mon Pa Mon Po (CD only) (Poncho Sanchez).wav" WAVE
INDEX 01 00:00:00
TRACK 10 AUDIO
TITLE "Para Ti (Mongo Santamaria)"
PERFORMER "Poncho Sanchez"
INDEX 00 06:51:65
FILE "10 - Para Ti (Mongo Santamaria).wav" WAVE
INDEX 01 00:00:00
 
Состав
Poncho Sanchez - vocals, congas, percussion
David Torres - piano
Tony Banda - bass, percussion
Alex Henderson - trombone
Ramon Banda - timbales, percussion
Jose "Papo" Rodriguez - bongos, percussion, background vocals
Scott Martin - saxophone, flute
Mongo Santamaria - congas on tracks 2, 4, 7-9
Stan "Be Bop" Martin - trumpet, flugelhorn
13:33
259
Нет комментариев. Ваш будет первым!