Поиск

(World Fusion) [CD] Jan Garbarek / Ustad Fateh Ali Khan & Musicians From Pakistan - Ragas And Sagas - 1992, APE (image+.cue), lossless

(World Fusion) [CD] Jan Garbarek / Ustad Fateh Ali Khan & Musicians From Pakistan - Ragas And Sagas - 1992, APE (image+.cue), lossless
Треклист:
Jan Garbarek / Ustad Fateh Ali Khan & Musicians From Pakistan - Ragas And Sagas
Жанр: World Fusion
Носитель: CD
Страна-производитель диска: Germany
Год издания: 1992
Издатель (лейбл): ECM Records
Номер по каталогу: ECM 1442
Страна: Norge / Pakistan
Аудиокодек: APE (*.ape)
Тип рипа: image+.cue
Битрейт аудио: lossless
Продолжительность: 46:00
Источник (релизер): Cвой рип
Наличие сканов в содержимом раздачи: да
01. Raga I
02. Saga
03. Raga II
04. Raga III
05. Raga IV
 
Лог создания рипа
Exact Audio Copy V1.0 beta 3 from 29. August 2011
EAC extraction logfile from 3. February 2014, 22:11
Jan Garbarek / Ustad Fateh Ali Khan & Musicians From Pakistan / Ragas And Sagas
Used drive : ATAPI iHAS124 B Adapter: 1 ID: 1
Read mode : Secure
Utilize accurate stream : Yes
Defeat audio cache : Yes
Make use of C2 pointers : No
Read offset correction : 6
Overread into Lead-In and Lead-Out : No
Fill up missing offset samples with silence : Yes
Delete leading and trailing silent blocks : No
Null samples used in CRC calculations : Yes
Used interface : Native Win32 interface for Win NT & 2000
Used output format : Monkey's Audio Lossless Encoder
Selected bitrate : Extra High Lossless Compression
Quality : High
Add ID3 tag : No
Command line compressor : C:\Program Files\Monkey's Audio\MAC.exe
TOC of the extracted CD
Track | Start | Length | Start sector | End sector
---------------------------------------------------------
1 | 0:00.00 | 8:44.10 | 0 | 39309
2 | 8:44.10 | 5:28.01 | 39310 | 63910
3 | 14:12.11 | 13:08.36 | 63911 | 123046
4 | 27:20.47 | 11:56.09 | 123047 | 176755
5 | 39:16.56 | 12:56.30 | 176756 | 234985
Range status and errors
Selected range
Filename D:\I\Jan Garbarek, Ustad Fateh Ali Khan & Musicians From Pakistan - Ragas And Sagas ‎(1992)\Jan Garbarek , Ustad Fateh Ali Khan & Musicians From Pakistan - Ragas And Sagas.wav
Peak level 100.0 %
Extraction speed 7.6 X
Range quality 100.0 %
Test CRC 08FA7515
Copy CRC 08FA7515
Copy OK
No errors occurred
End of status report
==== Log checksum C432BBA0AE524AE9D6E6637DA396C46B7D19DAA0D3934A84E721DBAF6A3A271F ====
 
Об альбоме (сборнике)
Recorded May 1990, Rainbow Studio, Oslo
 
Состав
Sarangi – Ustad Nazim Ali Khan
Soprano Saxophone, Tenor Saxophone, Producer – Jan Garbarek
Tabla – Ustad Shaukat Hussain
Voice – Deepika Thathaal
Voice, Tabla – Ustad Fateh Ali Khan
14:32
311
Нет комментариев. Ваш будет первым!