Поиск

(World Fusion, Ethnic Jazz) Bill Laswell - Hear No Evil (Original Edition) - 1988, FLAC (tracks+.cue), lossless

(World Fusion, Ethnic Jazz) Bill Laswell - Hear No Evil (Original Edition) - 1988, FLAC (tracks+.cue), lossless
Треклист:
Bill Laswell / Hear No Evil (Original Edition)
Жанр: World Fusion, Ethnic Jazz
Страна-производитель диска: UK
Год издания: 1988
Издатель (лейбл): Venture
Номер по каталогу: CDVE12
Страна: US
Аудиокодек: FLAC (*.flac)
Тип рипа: tracks+.cue
Битрейт аудио: lossless
Продолжительность: 43:26
Источник (релизер): свой фирменный диск
Наличие сканов в содержимом раздачи: нет
Треклист:
1 Lost Roads 7:26
2 Bullet Hole Memory 7:13
3 Illinois Central 6:59
4 Assassin 6:24
5 Stations Of The Cross 7:13
6 Kingdom Come 7:33
 
Лог создания рипа
Exact Audio Copy V1.0 beta 2 from 29. April 2011
EAC extraction logfile from 16. November 2012, 23:01
Bill Laswell / Hear No Evil
Used drive : PIONEER DVD-RW DVR-115D Adapter: 0 ID: 0
Read mode : Secure
Utilize accurate stream : Yes
Defeat audio cache : Yes
Make use of C2 pointers : No
Read offset correction : 48
Overread into Lead-In and Lead-Out : No
Fill up missing offset samples with silence : Yes
Delete leading and trailing silent blocks : No
Null samples used in CRC calculations : Yes
Used interface : Installed external ASPI interface
Gap handling : Appended to previous track
Used output format : User Defined Encoder
Selected bitrate : 896 kBit/s
Quality : High
Add ID3 tag : No
Command line compressor : C:\Program Files\Exact Audio Copy\FLAC\FLAC.EXE
Additional command line options : -6 -V -T "ARTIST=%artist%" -T "TITLE=%title%" -T "ALBUM=%albumtitle%" -T "DATE=%year%" -T "TRACKNUMBER=%tracknr%" -T "GENRE=%genre%" -T "COMMENT=%comment%" -T "BAND=%albuminterpret%" -T "COMPOSER=%composer%" %haslyrics%--ta
TOC of the extracted CD
Track | Start | Length | Start sector | End sector
---------------------------------------------------------
1 | 0:00.00 | 7:30.02 | 0 | 33751
2 | 7:30.02 | 7:16.10 | 33752 | 66461
3 | 14:46.12 | 7:03.10 | 66462 | 98196
4 | 21:49.22 | 6:25.73 | 98197 | 127144
5 | 28:15.20 | 7:34.12 | 127145 | 161206
6 | 35:49.32 | 7:36.43 | 161207 | 195449
Track 1
Filename D:\zzz\01 - Lost Roads.wav
Pre-gap length 0:00:02.00
Peak level 97.7 %
Extraction speed 5.1 X
Track quality 100.0 %
Test CRC A31D99A9
Copy CRC A31D99A9
Accurately ripped (confidence 9) [9E112DE6] (AR v1)
Copy OK
Track 2
Filename D:\zzz\02 - Bullet Hole Memory.wav
Pre-gap length 0:00:02.00
Peak level 81.6 %
Extraction speed 5.8 X
Track quality 100.0 %
Test CRC D5405AF2
Copy CRC D5405AF2
Accurately ripped (confidence 10) [CBA48046] (AR v1)
Copy OK
Track 3
Filename D:\zzz\03 - Illinois Central.wav
Pre-gap length 0:00:02.00
Peak level 80.0 %
Extraction speed 6.5 X
Track quality 100.0 %
Test CRC 2F8695FF
Copy CRC 2F8695FF
Accurately ripped (confidence 8) [1729BD2F] (AR v1)
Copy OK
Track 4
Filename D:\zzz\04 - Assassin.wav
Pre-gap length 0:00:02.00
Peak level 92.6 %
Extraction speed 7.0 X
Track quality 100.0 %
Test CRC DC8BDAEB
Copy CRC DC8BDAEB
Accurately ripped (confidence 8) [4D574C76] (AR v1)
Copy OK
Track 5
Filename D:\zzz\05 - Stations Of The Cross.wav
Pre-gap length 0:00:01.00
Peak level 76.4 %
Extraction speed 7.0 X
Track quality 99.9 %
Test CRC 4E038273
Copy CRC 4E038273
Accurately ripped (confidence 8) [B0C7E148] (AR v1)
Copy OK
Track 6
Filename D:\zzz\06 - Kingdom Come.wav
Pre-gap length 0:00:02.00
Peak level 66.4 %
Extraction speed 8.0 X
Track quality 100.0 %
Test CRC 52716D79
Copy CRC 52716D79
Accurately ripped (confidence 8) [F2403509] (AR v1)
Copy OK
All tracks accurately ripped
No errors occurred
End of status report
==== Log checksum F09C8B5FD01EABE23CEB5B21C20E168E8B1DF86E2EAA30BED0D4823EA8B8B77F ====
 
Содержание индексной карты (.CUE)
REM GENRE Ethnic
REM DATE 1988
REM DISCID 4B0A2E06
REM COMMENT "ExactAudioCopy v1.0b2"
PERFORMER "Bill Laswell"
TITLE "Hear No Evil"
FILE "01 - Lost Roads.wav" WAVE
TRACK 01 AUDIO
TITLE "Lost Roads"
PERFORMER "Bill Laswell"
INDEX 01 00:00:00
TRACK 02 AUDIO
TITLE "Bullet Hole Memory"
PERFORMER "Bill Laswell"
INDEX 00 07:28:02
FILE "02 - Bullet Hole Memory.wav" WAVE
INDEX 01 00:00:00
TRACK 03 AUDIO
TITLE "Illinois Central"
PERFORMER "Bill Laswell"
INDEX 00 07:14:10
FILE "03 - Illinois Central.wav" WAVE
INDEX 01 00:00:00
TRACK 04 AUDIO
TITLE "Assassin"
PERFORMER "Bill Laswell"
INDEX 00 07:01:10
FILE "04 - Assassin.wav" WAVE
INDEX 01 00:00:00
TRACK 05 AUDIO
TITLE "Stations Of The Cross"
PERFORMER "Bill Laswell"
INDEX 00 06:24:73
FILE "05 - Stations Of The Cross.wav" WAVE
INDEX 01 00:00:00
TRACK 06 AUDIO
TITLE "Kingdom Come"
PERFORMER "Bill Laswell"
INDEX 00 07:32:12
FILE "06 - Kingdom Come.wav" WAVE
INDEX 01 00:00:00
 
Лог проверки качества
d:\>d:\aucdtect -d/-m0 d:\zzz\*.wav
auCDtect: CD records authenticity detector, version 0.8.2
Copyright (c) 2004 Oleg Berngardt. All rights reserved.
Copyright (c) 2004 Alexander Djourik. All rights reserved.
------------------------------------------------------------
Processing file: [01. Lost Roads.wav]
------------------------------------------------------------
This track looks like CDDA with probability 100%
------------------------------------------------------------
Processing file: [02. Bullet Hole Memory.wav]
------------------------------------------------------------
This track looks like CDDA with probability 100%
------------------------------------------------------------
Processing file: [03. Illinois Central.wav]
------------------------------------------------------------
This track looks like CDDA with probability 100%
------------------------------------------------------------
Processing file: [04. Assassin.wav]
------------------------------------------------------------
This track looks like CDDA with probability 100%
------------------------------------------------------------
Processing file: [05. Stations Of The Cross.wav]
------------------------------------------------------------
This track looks like CDDA with probability 49%
------------------------------------------------------------
Processing file: [06. Kingdom Come.wav]
------------------------------------------------------------
This track looks like CDDA with probability 100%
------------------------------------------------------------
Final Conclusion:
------------------------------------------------------------
These tracks looks like CDDA with probability 100%
Доп. информация:
 
AMG Review
On Hear No Evil, Bill Laswell attempts to fuse his love of Eastern musical forms and textures with the tonality and sensibility of the Western world. The result is a harmonious though rather benign combination, with much of the trappings of new age music. The album title can be taken at face value; there is no danger in sight. Mostly, the instrumentalists mesh perfectly in a pastoral blend that never drifts far from its harmonic center. Percussionists Zakir Hussain (tabla) and Aiyb Dieng (talking drums) produce the bulk of the rhythm and guitarist Nick Skopelitis and violinist Shankar weave pleasant, droning melodies around Laswell's rubbery bass playing. The only discord comes with "Assassin," an ineffective attempt at dark, throbbing funk. Still, the track serves as a good model for Laswell's approach. In this case, the West wins. Skopelitis delivers some banal rock licks over a beat that's not nearly as heavy as it might aspire to be. A mixture of tabla and talking drums makes its way into the music's pauses, providing an Eastern undercurrent, and Shankar lends a wordless vocal to the texture. The most successful track is the closing "Kingdom Come." The introduction highlights the group's percussion trio; Hussain is even allowed a captivating tabla solo, approaching his instrument like a drum kit. For once, the musicians are allowed some room to roam, and they delve into the beginnings of an engaging, improvised dialogue. While the fusion elements present on Hear No Evil may have seemed groundbreaking during the late '80s, the passing of time has not been so kind. Laswell's compositions take few risks, requiring the instrumentalists to pull more of the weight but, unfortunately, they remain too subdued.
 
Состав
Performer – Aïyb Dieng, Bill Laswell, Daniel Ponce, Nicky Skopelitis, Shankar, Zakir Hussain
Written-By, Producer – Bill Laswell
06:11
341
Нет комментариев. Ваш будет первым!