Поиск

(World Fusion / Ethnic Fusion / Modal Music / Knitting Factory) Pachora - Pachora - 1997, FLAC (image+.cue), lossless

(World Fusion / Ethnic Fusion / Modal Music / Knitting Factory) Pachora - Pachora - 1997, FLAC (image+.cue), lossless
Pachora - Pachora

Жанр: World Fusion / Ethnic Fusion / Modal Music / Knitting Factory
Год выпуска диска: 1997
Производитель диска: Knitting Factory Works KFW 207; USA
Аудио кодек: FLAC
Тип рипа: image+.cue
Битрейт аудио: lossless
Продолжительность: 55:03
Chris Speed: clarinet
Brad Shepik: Portuguese guitar, electric saz
Skúli Sverrisson: electric bass
Jim Black: drums, dumbek, percussion
1. Dever Oro
2. Paidushko
3. Old Things
4. Buchini
5. Sere
6. Hosi
7. Ranitsa
8. Pinar Bogi / Yarim Hava
9. Kaponata
 
EAC Report
Exact Audio Copy V0.99 prebeta 4 from 23. January 2008
EAC extraction logfile from 17. April 2010, 11:26
Pachora / Pachora
Used drive : TSSTcorpCD/DVDW SH-S182M Adapter: 1 ID: 0
Read mode : Secure
Utilize accurate stream : Yes
Defeat audio cache : Yes
Make use of C2 pointers : No
Read offset correction : 6
Overread into Lead-In and Lead-Out : No
Fill up missing offset samples with silence : Yes
Delete leading and trailing silent blocks : No
Null samples used in CRC calculations : Yes
Used interface : Installed external ASPI interface
Used output format : User Defined Encoder
Selected bitrate : 1024 kBit/s
Quality : High
Add ID3 tag : No
Command line compressor : C:\Program Files\Exact Audio Copy\Flac\flac.exe
Additional command line options : -8 -V -T "ARTIST=%a" -T "TITLE=%t" -T "ALBUM=%g" -T "DATE=%y" -T "TRACKNUMBER=%n" -T "GENRE=%m" -T "COMMENT=EAC FLAC -8" %s
TOC of the extracted CD
Track | Start | Length | Start sector | End sector
---------------------------------------------------------
1 | 0:00.00 | 4:44.07 | 0 | 21306
2 | 4:44.07 | 3:32.53 | 21307 | 37259
3 | 8:16.60 | 7:08.72 | 37260 | 69431
4 | 15:25.57 | 7:52.50 | 69432 | 104881
5 | 23:18.32 | 8:06.25 | 104882 | 141356
6 | 31:24.57 | 7:48.60 | 141357 | 176516
7 | 39:13.42 | 5:21.23 | 176517 | 200614
8 | 44:34.65 | 8:45.35 | 200615 | 240024
9 | 53:20.25 | 1:42.67 | 240025 | 247741
Range status and errors
Selected range
Filename C:\Users\Igor\Music\eac\Pachora - Pachora.wav
Peak level 98.8 %
Range quality 100.0 %
Test CRC 640C2AE0
Copy CRC 640C2AE0
Copy OK
No errors occurred
AccurateRip summary
Track 1 accurately ripped (confidence 1) [DE9DE78C]
Track 2 accurately ripped (confidence 1) [D46E66C6]
Track 3 accurately ripped (confidence 1) [71880A81]
Track 4 accurately ripped (confidence 1) [A34C5EA5]
Track 5 accurately ripped (confidence 1) [1172E310]
Track 6 accurately ripped (confidence 1) [FA382C42]
Track 7 accurately ripped (confidence 1) [5C984AF7]
Track 8 accurately ripped (confidence 1) [717E7B0F]
Track 9 accurately ripped (confidence 1) [441CBCE2]
All tracks accurately ripped
End of status report

рип собственный
Pachora - Unn (1998)
Pachora - Ast (1999)
Pachora - Astereotypical (2003) almouse
16:47
285
Нет комментариев. Ваш будет первым!