Поиск

(Latin Jazz) Chucho Valdes — Briyumba Palo Congo — 1999, FLAC (tracks+.cue), lossless

(Latin Jazz) Chucho Valdes — Briyumba Palo Congo — 1999, FLAC (tracks+.cue), lossless
Треклист:
Chucho Valdes — Briyumba Palo Congo
Жанр: Latin Jazz
Год выпуска диска: 1999
Label: Blue Note (7243 4 98917 2 2)
Аудио кодек: FLAC
Тип рипа: tracks+.cue
Битрейт аудио: lossless
Продолжительность: 53:44
Трeклист:
01. El Rumbon (The Party) (7:52)
02. Bolero (Ballad) (6:16)
03. Caravan (7:02)
04. Embraceable You (6:03)
05. Ponle La Clave (Put The Time On It) (9:23)
06. Rhapsody In Blue (7:08)
07. Briyumba Palo Congo (Religion Of The Congo) (10:00)
   Источник:
 
 
Audiochecker.log
AUDIOCHECKER v2.0 beta (build 457) - by Dester - opdester@freemail.hu
~~~~~~~~~~~~~~~~~~~~~~~~~~~~~~~~~~
Started at: среда, 07. 07. 2010. - 1:56.09
7 files found
1 -===- N:\1998. Chucho Valdes - Briyumba Palo Congo\01. El Rumbon (The Party).flac
Extracted successfully
Conclusion: this track is CDDA with probability 100%
Tempfile successfully deleted.
2 -===- N:\1998. Chucho Valdes - Briyumba Palo Congo\02. Bolero (Ballad).flac
Extracted successfully
Conclusion: this track is CDDA with probability 100%
Tempfile successfully deleted.
3 -===- N:\1998. Chucho Valdes - Briyumba Palo Congo\03. Caravan.flac
Extracted successfully
Conclusion: this track is CDDA with probability 100%
Tempfile successfully deleted.
4 -===- N:\1998. Chucho Valdes - Briyumba Palo Congo\04. Embraceable You.flac
Extracted successfully
Conclusion: this track is CDDA with probability 100%
Tempfile successfully deleted.
5 -===- N:\1998. Chucho Valdes - Briyumba Palo Congo\05. Ponle La Clave (Put The Time On It).flac
Extracted successfully
Conclusion: this track is CDDA with probability 100%
Tempfile successfully deleted.
6 -===- N:\1998. Chucho Valdes - Briyumba Palo Congo\06. Rhapsody in Blue.flac
Extracted successfully
Conclusion: this track is CDDA with probability 100%
Tempfile successfully deleted.
7 -===- N:\1998. Chucho Valdes - Briyumba Palo Congo\07. Briyumba Palo Congo (Religion Of The Congo).flac
Extracted successfully
Conclusion: this track is CDDA with probability 100%
Tempfile successfully deleted.
Finished at: среда, 07. 07. 2010. - 2:00.18 (operation time: 0:04.08)
 
.log
Exact Audio Copy V0.99 prebeta 4 from 23. January 2008
EAC extraction logfile from 6. June 2009, 21:46
Chucho Valdйs / Briyumba Palo Congo
Used drive : TSSTcorpCDDVDW TS-H653N Adapter: 2 ID: 2
Read mode : Secure
Utilize accurate stream : Yes
Defeat audio cache : Yes
Make use of C2 pointers : No
Read offset correction : 6
Overread into Lead-In and Lead-Out : No
Fill up missing offset samples with silence : Yes
Delete leading and trailing silent blocks : No
Null samples used in CRC calculations : Yes
Used interface : Native Win32 interface for Win NT & 2000
Gap handling : Appended to previous track
Used output format : User Defined Encoder
Selected bitrate : 1024 kBit/s
Quality : High
Add ID3 tag : No
Command line compressor : C:\Program Files\FLAC -\flac.exe
Additional command line options : -5 -V -T "artist=%a" -T "title=%t" -T "album=%g" -T "date=%y" -T "tracknumber=%n" -T "genre=%m" -T comment="shared by pastafari cubensis" %s
TOC of the extracted CD
Track | Start | Length | Start sector | End sector
---------------------------------------------------------
1 | 0:00.00 | 7:52.02 | 0 | 35401
2 | 7:52.02 | 6:16.18 | 35402 | 63619
3 | 14:08.20 | 7:01.57 | 63620 | 95251
4 | 21:10.02 | 6:03.05 | 95252 | 122481
5 | 27:13.07 | 9:23.13 | 122482 | 164719
6 | 36:36.20 | 7:08.00 | 164720 | 196819
7 | 43:44.20 | 9:59.50 | 196820 | 241794
Track 1
Filename C:\CD_buffer\Chucho Valdйs - Briyumba Palo Congo [1998] [FLAC]\01- El Rumbуn (The Party).wav
Pre-gap length 0:00:02.00
Peak level 98.8 %
Track quality 100.0 %
Test CRC 08CF1206
Copy CRC 08CF1206
Track not present in AccurateRip database
Copy OK
Track 2
Filename C:\CD_buffer\Chucho Valdйs - Briyumba Palo Congo [1998] [FLAC]\02- Bolero (Ballad).wav
Peak level 93.7 %
Track quality 99.9 %
Test CRC EADD5435
Copy CRC EADD5435
Track not present in AccurateRip database
Copy OK
Track 3
Filename C:\CD_buffer\Chucho Valdйs - Briyumba Palo Congo [1998] [FLAC]\03- Caravan.wav
Peak level 98.8 %
Track quality 100.0 %
Test CRC EA70BF47
Copy CRC EA70BF47
Track not present in AccurateRip database
Copy OK
Track 4
Filename C:\CD_buffer\Chucho Valdйs - Briyumba Palo Congo [1998] [FLAC]\04- Embraceable You.wav
Peak level 82.4 %
Track quality 100.0 %
Test CRC 09A1D34A
Copy CRC 09A1D34A
Track not present in AccurateRip database
Copy OK
Track 5
Filename C:\CD_buffer\Chucho Valdйs - Briyumba Palo Congo [1998] [FLAC]\05- Pуnle La Clave (Put The Time On It).wav
Peak level 98.8 %
Track quality 99.9 %
Test CRC 8F3DCD58
Copy CRC 8F3DCD58
Track not present in AccurateRip database
Copy OK
Track 6
Filename C:\CD_buffer\Chucho Valdйs - Briyumba Palo Congo [1998] [FLAC]\06- Rhapsody In Blue.wav
Peak level 98.8 %
Track quality 99.9 %
Test CRC A02ABFD0
Copy CRC A02ABFD0
Track not present in AccurateRip database
Copy OK
Track 7
Filename C:\CD_buffer\Chucho Valdйs - Briyumba Palo Congo [1998] [FLAC]\07- Briyumba Palo Congo (Religion Of The Congo).wav
Peak level 98.8 %
Track quality 100.0 %
Test CRC D399CBB8
Copy CRC D399CBB8
Track not present in AccurateRip database
Copy OK
None of the tracks are present in the AccurateRip database
No errors occurred
End of status report
 
.cue
REM GENRE "AfroCuban Jazz"
REM DATE 1998
REM DISCID 5D0C9707
REM COMMENT "ExactAudioCopy v0.99pb4"
PERFORMER "Chucho Valdйs"
TITLE "Briyumba Palo Congo"
FILE "Chucho Valdйs - Briyumba Palo Congo [1998] [FLAC]\01- El Rumbуn (The Party).wav" WAVE
TRACK 01 AUDIO
TITLE "El Rumbуn (The Party)"
PERFORMER "Chucho Valdйs"
FLAGS DCP
INDEX 01 00:00:00
FILE "Chucho Valdйs - Briyumba Palo Congo [1998] [FLAC]\02- Bolero (Ballad).wav" WAVE
TRACK 02 AUDIO
TITLE "Bolero (Ballad)"
PERFORMER "Chucho Valdйs"
FLAGS DCP
INDEX 01 00:00:00
FILE "Chucho Valdйs - Briyumba Palo Congo [1998] [FLAC]\03- Caravan.wav" WAVE
TRACK 03 AUDIO
TITLE "Caravan"
PERFORMER "Chucho Valdйs"
FLAGS DCP
INDEX 01 00:00:00
FILE "Chucho Valdйs - Briyumba Palo Congo [1998] [FLAC]\04- Embraceable You.wav" WAVE
TRACK 04 AUDIO
TITLE "Embraceable You"
PERFORMER "Chucho Valdйs"
FLAGS DCP
INDEX 01 00:00:00
FILE "Chucho Valdйs - Briyumba Palo Congo [1998] [FLAC]\05- Pуnle La Clave (Put The Time On It).wav" WAVE
TRACK 05 AUDIO
TITLE "Pуnle La Clave (Put The Time On It)"
PERFORMER "Chucho Valdйs"
FLAGS DCP
INDEX 01 00:00:00
FILE "Chucho Valdйs - Briyumba Palo Congo [1998] [FLAC]\06- Rhapsody In Blue.wav" WAVE
TRACK 06 AUDIO
TITLE "Rhapsody In Blue"
PERFORMER "Chucho Valdйs"
FLAGS DCP
INDEX 01 00:00:00
FILE "Chucho Valdйs - Briyumba Palo Congo [1998] [FLAC]\07- Briyumba Palo Congo (Religion Of The Congo).wav" WAVE
TRACK 07 AUDIO
TITLE "Briyumba Palo Congo (Religion Of The Congo)"
PERFORMER "Chucho Valdйs"
FLAGS DCP
INDEX 01 00:00:00
   :arrow: Мои раздачи на трекере
15:46
278
Нет комментариев. Ваш будет первым!